img image001 image001 image001 image001 image001 image001 image001 image001 image001 image001 image001 image001 image001 image001 image001

Planets Sun Sun Sun
Статистика раздачи
Автор: Снежана | Размер: 84.84 МБ | Добавлен: 31 июл 2013
Раздают: 4111    Качают: 188
Скачать торрент
Скачать торрент
Описание торрента

СообщениеДобавлено: 31 июл 2013 

#77
Об игре
Counter-Strike: Global Offensive (CS: GO) возродит тот ураганный командный игровой процесс, впервые представленный еще 12 лет назад.

CS: GO будет включать в себя новые карты, персонажей, оружие и их улучшенные версии из классической CS (de_dust и т.п.). Кроме того, CS: GO будет содержать новые игровые режимы, систему организации матчей, глобальные таблицы игроков и многое другое.
«Counter-Strike была сюрпризом для игровой индустрии, когда не особо удачный мод стал одним из самых популярных шутеров в мире сразу же после его релиза в Августе 1999 года, — говорит Даг Ломбарди из Valve, — за прошедшие 12 лет, она все еще одна из самых популярных в мире игр, часто появляется на игровых соревнованиях и продана в количестве более 25 миллионов копий по всему миру. CS: GO обещает возродить знаменитый игровой процесс Counter-Strike и предложить его игрокам не только на ПК, но и на консолях следующего поколения и компьютерах Mac».

CS: GO разрабатывается Valve в сотрудничестве с Hidden Path Entertainment. Посетителям выставок «PAX Prime» и «Eurogamer Expo» представиться шанс опробовать игру уже в этом году, а ее выход запланирован на начало 2012 года.

Год выпуска: 2012
Разработчик: Valve
Перевод: не требуется
Субтитры: отсутствуют

Counter-Strike Global Offensive Official Launch Trailer.flv

General
Complete name : Counter-Strike Global Offensive Official Launch Trailer.flv
Format : Flash Video
File size : 6.05 MiB
Duration : 57s 474ms
Overall bit rate : 883 Kbps

Video
Format : AVC
Format/Info : Advanced Video Codec
Format profile : Main@L3.0
Format settings, CABAC : Yes
Format settings, ReFrames : 3 frames
Format settings, GOP : M=1, N=48
Codec ID : 7
Duration : 57s 516ms
Bit rate : 747 Kbps
Width : 854 pixels
Height : 480 pixels
Display aspect ratio : 16:9
Frame rate mode : Constant
Frame rate : 23.976 fps
Color space : YUV
Chroma subsampling : 4:2:0
Bit depth : 8 bits
Scan type : Progressive
Bits/(Pixel*Frame) : 0.076
Stream size : 5.12 MiB (85%)

Audio
Format : AAC
Format/Info : Advanced Audio Codec
Format profile : LC
Codec ID : 10
Duration : 57s 469ms
Bit rate : 128 Kbps
Channel(s) : 2 channels
Channel positions : Front: L R
Sampling rate : 44.1 KHz
Compression mode : Lossy
Stream size : 898 KiB (15%)
Counter-Strike Global Offensive - Video Preview.mp4

General
Complete name : Counter-Strike Global Offensive - Video Preview.mp4
Format : MPEG-4
Format profile : Base Media / Version 2
Codec ID : mp42
File size : 78.8 MiB
Duration : 3mn 30s
Overall bit rate : 3 138 Kbps
Encoded date : UTC 2011-08-25 03:38:11
Tagged date : UTC 2011-08-25 03:38:11

Video
ID : 1
Format : AVC
Format/Info : Advanced Video Codec
Format profile : High@L3.1
Format settings, CABAC : Yes
Format settings, ReFrames : 1 frame
Format settings, GOP : M=1, N=59
Codec ID : avc1
Codec ID/Info : Advanced Video Coding
Duration : 3mn 30s
Bit rate : 2 988 Kbps
Maximum bit rate : 6 798 Kbps
Width : 1 280 pixels
Height : 720 pixels
Display aspect ratio : 16:9
Frame rate mode : Variable
Frame rate : 29.970 fps
Minimum frame rate : 29.412 fps
Maximum frame rate : 30.303 fps
Color space : YUV
Chroma subsampling : 4:2:0
Bit depth : 8 bits
Scan type : Progressive
Bits/(Pixel*Frame) : 0.108
Stream size : 75.0 MiB (95%)
Tagged date : UTC 2011-08-25 03:38:12

Audio
ID : 2
Format : AAC
Format/Info : Advanced Audio Codec
Format profile : LC
Codec ID : 40
Duration : 3mn 30s
Bit rate mode : Variable
Bit rate : 144 Kbps
Maximum bit rate : 180 Kbps
Channel(s) : 2 channels
Channel positions : Front: L R
Sampling rate : 44.1 KHz
Compression mode : Lossy
Stream size : 3.60 MiB (5%)
Title : IsoMedia File Produced by Google, 5-11-2011
Encoded date : UTC 2011-08-25 03:38:12
Tagged date : UTC 2011-08-25 03:38:12










Counter-Strike Global Offensive Official Launch Trailer




Counter-Strike Global Offensive - Video Preview





   Похожие торренты   Торрент   Размер 
В этой теме нет новых непрочитанных сообщений. Counter-Strike: Global Offensive (2012) XBOX360

241 | 39

1.93 ГБ

В этой теме нет новых непрочитанных сообщений. Counter-Strike: Global Offensive (2012) PC | Beta

1745 | 145

6.03 ГБ

В этой теме нет новых непрочитанных сообщений. Counter-Strike - FileClub BOX Shooter Edition v.1.1 (Counter-Strike 1.6, Counter-Strike Source, CrossFire, Cracked Steam, Steam) (2011) PC

196 | 26

2.58 ГБ

В этой теме нет новых непрочитанных сообщений. Counter-Strike: Source - Сборник всех необходимых программ для создания и обслуживания сервера Counter-Strike: Source (2010) РС

5371 | 742

47.39 МБ

В этой теме нет новых непрочитанных сообщений. Counter-Strike 1.6 [47-48] Protected (2012) PC

2021 | 62

365.27 МБ

В этой теме нет новых непрочитанных сообщений. Counter-Strike 1.6 [47+48 протокол] (2012) PC

3966 | 88

259.34 МБ

В этой теме нет новых непрочитанных сообщений. Counter Strike: Source - Modern Warfare 3 (2012) PC

469 | 25

1.33 ГБ




Вы не можете начинать темы
Вы не можете отвечать на сообщения
Вы не можете редактировать свои сообщения
Вы не можете удалять свои сообщения
Вы не можете добавлять вложения

Перейти:  
Для Мосгорсуда, Роскомнадзора и рекламодателей: mosgorsud-torrent[собачка]yandex.ru
 Вход
ppkBB3cker v.2 © 2008-2014 @ PPK
[ Time : 0.068s | 15 Queries | GZIP : Off ]
CGP output time : 0.044s | 5 Queries | GZIP : Off

Торрент трекер RUTOR.IN, Не можете зайти на rutor.org? Какой новый адрес рутор? Какое зеркало рутор? Не работает rutor.org и зеркала? Тогда наш торрент специально для вас. Rutor.in неофициальное зеркало rutor. В случае если у Вас заблокирован rutor или вдруг Вы не можете на него зайти, то Вы без труда сможете скачать бесплатно и без рекламы последние новинки кино, игр, сериалов и прочего у нас, на Rutor.in. Не нужно использовать прокси, чтобы зайти на рутор, достаточно воспользоваться нашим ресурсом. Все новые фильмы, игры, сериалы, книги и музыка за 2013 и 2014 годы через торрент бесплатно. Скачивайте фильмы в хорошем качестве, игры для пк, xbox, playstation без регистрации. У нас вы найдете новые Зарубежные сериалы и Русские сериалы 2013, 2014, 2015 годов. Оставайтесь с нами, качайте любимые фильмы, игры, сериалы, книги и музыку.