img image001 image001 image001 image001 image001 image001 image001 image001 image001 image001 image001 image001 image001 image001 image001

Planets Sun Sun Sun
Статистика раздачи
Автор: Nickolas3434 | Размер: 7.65 ГБ | Добавлен: 11 мар 2016
Раздают: 14    Качают: 1
Скачать торрент
Скачать торрент
Описание торрента

СообщениеДобавлено: 11 мар 2016 


Производство: Digital Spray Studio
Жанр: Боевик, Триллер, Ужасы, Фантастика
Описание:
Это видеопрохождение игры You Are Empty.
Описание игры:
Смерть ли это? Или спасение? Прозрение или гибель разума? Судьба свела вас со зловещей пустотой мертвого города, который внимательно следит за своим единственным гостем. Способны ли вы противопоставить себя этому монстру и бросить вызов судьбе? Альтернативная история ХХ века. 50-е годы, Советский Союз проводит грандиозный эксперимент по созданию нового человека, достойного гражданина светлого коммунистического будущего. Попытка изменить законы природы окончилась полным провалом. Невидимое поле, изменяющее физиологию человека, вызвало у населения крупного советского города неконтролируемые мутации. Большая часть жителей исчезла, а те, кому удалось пережить воздействие поля, превратились в чудовищ. Волей случая один человек сумел избежать губительных последствий эксперимента. Он сохранил рассудок и намерен выяснить причины катастрофы. Ему предстоит найти выживших, и, по возможности, исправить случившееся. Этот человек - Вы.
Продолжительность: 03:40:28
Видео: AVC/H.264, 1280x720, 4800 kbps, 50 fps.
Аудио: AAC, 2 ch, 240 kbps
General
Unique ID : 188860919830161853194158186578896504355 (0x8E154A42D979887CA563D67CD1444623)
Complete name : Прохождение - You Are Empty.mkv
Format : Matroska
Format version : Version 4 / Version 2
File size : 7.65 GiB
Duration : 3h 40mn
Overall bit rate : 4 970 Kbps
Encoded date : UTC 2016-03-08 19:19:03
Writing application : mkvmerge v8.3.0 ('Over the Horizon') 32bit
Writing library : libebml v1.3.1 + libmatroska v1.4.2
Video
ID : 1
Format : AVC
Format/Info : Advanced Video Codec
Format profile : High@L3.2
Format settings, CABAC : Yes
Format settings, ReFrames : 4 frames
Codec ID : V_MPEG4/ISO/AVC
Duration : 3h 40mn
Bit rate : 4 800 Kbps
Width : 1 280 pixels
Height : 720 pixels
Display aspect ratio : 16:9
Frame rate mode : Constant
Frame rate : 50.000 fps
Color space : YUV
Chroma subsampling : 4:2:0
Bit depth : 8 bits
Scan type : Progressive
Bits/(Pixel*Frame) : 0.104
Stream size : 7.39 GiB (97%)
Writing library : x264 core 129
Encoding settings : cabac=1 / ref=4 / deblock=1:0:0 / analyse=0x3:0x113 / me=umh / subme=7 / psy=1 / psy_rd=1.00:0.00 / mixed_ref=1 / me_range=32 / chroma_me=1 / trellis=2 / 8x8dct=1 / cqm=0 / deadzone=21,11 / fast_pskip=0 / chroma_qp_offset=-2 / threads=8 / lookahead_threads=1 / sliced_threads=0 / nr=0 / decimate=1 / interlaced=0 / bluray_compat=0 / constrained_intra=0 / bframes=0 / weightp=2 / keyint=250 / keyint_min=25 / scenecut=40 / intra_refresh=0 / rc_lookahead=40 / rc=2pass / mbtree=1 / bitrate=4800 / ratetol=1.0 / qcomp=0.70 / qpmin=10 / qpmax=51 / qpstep=4 / cplxblur=20.0 / qblur=0.5 / ip_ratio=1.41 / aq=1:1.00
Default : Yes
Forced : Yes
Audio
ID : 2
Format : AAC
Format/Info : Advanced Audio Codec
Format profile : LC
Codec ID : A_AAC
Duration : 3h 40mn
Bit rate : 165 Kbps
Channel(s) : 2 channels
Channel positions : Front: L R
Sampling rate : 48.0 KHz
Frame rate : 46.875 fps (1024 spf)
Compression mode : Lossy
Stream size : 261 MiB (3%)
Language : Russian
Default : Yes
Forced : Yes

Скриншоты:



   Похожие торренты   Торрент   Размер 
В этой теме нет новых непрочитанных сообщений. You are Empty (2006) PC | RePack от R.G. UPG

532 | 54

1.35 ГБ

В этой теме нет новых непрочитанных сообщений. You are Empty (2006) PC | Лицензия

57 | 11

2.25 ГБ

В этой теме нет новых непрочитанных сообщений. You are Empty (2006) PC | RePack от R.G. Origami

513 | 148

1.45 ГБ

В этой теме нет новых непрочитанных сообщений. You Are Empty [v.1.3.3] (2006) PC | RePack от Juk.v.Muravenike

133 | 7

1.33 ГБ

В этой теме нет новых непрочитанных сообщений. You are Empty (2006) PC | RePack от R.G. Element Arts

51 | 7

1.29 ГБ

В этой теме нет новых непрочитанных сообщений. You Are Empty (2006) PC | RePack от R.G. NoLimits-Team GameS

0 | 2

1.36 ГБ

В этой теме нет новых непрочитанных сообщений. Max Payne 3 - Видеопрохождение (2012) HDTVRip | Sub

0 | 3

15.35 ГБ




Вы не можете начинать темы
Вы не можете отвечать на сообщения
Вы не можете редактировать свои сообщения
Вы не можете удалять свои сообщения
Вы не можете добавлять вложения

Перейти:  
Для Мосгорсуда, Роскомнадзора и рекламодателей: mosgorsud-torrent[собачка]yandex.ru
 Вход
ppkBB3cker v.2 © 2008-2014 @ PPK
[ Time : 0.041s | 16 Queries | GZIP : Off ]

Торрент трекер RUTOR.IN, Не можете зайти на rutor.org? Какой новый адрес рутор? Какое зеркало рутор? Не работает rutor.org и зеркала? Тогда наш торрент специально для вас. Rutor.in неофициальное зеркало rutor. В случае если у Вас заблокирован rutor или вдруг Вы не можете на него зайти, то Вы без труда сможете скачать бесплатно и без рекламы последние новинки кино, игр, сериалов и прочего у нас, на Rutor.in. Не нужно использовать прокси, чтобы зайти на рутор, достаточно воспользоваться нашим ресурсом. Все новые фильмы, игры, сериалы, книги и музыка за 2013 и 2014 годы через торрент бесплатно. Скачивайте фильмы в хорошем качестве, игры для пк, xbox, playstation без регистрации. У нас вы найдете новые Зарубежные сериалы и Русские сериалы 2013, 2014, 2015 годов. Оставайтесь с нами, качайте любимые фильмы, игры, сериалы, книги и музыку.