img image001 image001 image001 image001 image001 image001 image001 image001 image001 image001 image001 image001 image001 image001 image001

Planets Sun Sun Sun
Статистика раздачи
Автор: Nickolas3434 | Размер: 12.69 ГБ | Добавлен: 24 апр 2016
Раздают: 99    Качают: 10
Скачать торрент
Скачать торрент
Описание торрента

СообщениеДобавлено: 24 апр 2016 


Оригинальное название: Quantum Break
Год выпуска: 2016 г.
Разработчик игры: Remedy Entertainment (Финляндия)
Создатель видео: GamingWalkDi
Жанр: Игрофильм
Продолжительность: 06:38:05

Перевод: Дублированный [Официальный]
Субтитры: Русский хардсаб [Экранные надписи и тп.]

Режиссер: Стобе Харью
В ролях: Шон Эшмор, Эйдан Гиллен, Доминик Монахэн, Лэнс Реддик, Кортни Хоуп, Патрик Хьюсингер, Амелия Роуз Блэйр, Шон Дурри и др.

Описание:
Северо-Восточный Университет США Riverport, где эксперимент со временем прошёл крайне неудачно, и теперь все 3 главных персонажа игры — Джек Джойс (Шон Эшмор), Бет Уайлдер (Кортни Хоуп) и Пол Сайрин (Эйдан Гиллен), получили необычные способности. Например, Пол Серин обладает сверхспособностью, позволяющей видеть иные варианты развития событий и альтернативное будущее, а Джек и Бет могут останавливать время.
Дополнительная информация:
Данное видео позиционируется как ИГРОФИЛЬМ (без комментариев). В игрофильме присутствуют все катсцены, весь геймплей и весь live-action сериал из игры.


Качество: WEBRip 1080p | 60 fps
Формат: MP4
Видео: MPEG-4 AVC Video (H.264) / 1920х1080 / 4419 kbps / 59.940 fps
Аудио: AAC, 2 channels, 44.1 kHz, 128 kbps

General
Complete name : Quantum.Break.2016.D.WEBRip.1080p.60fps.mp4
Format : MPEG-4
Format profile : Base Media
Codec ID : isom
File size : 12.7 GiB
Duration : 6h 38mn
Overall bit rate : 4 563 Kbps
Writing application : Lavf57.34.102
Video
ID : 1
Format : AVC
Format/Info : Advanced Video Codec
Format profile : High@L4.2
Format settings, CABAC : Yes
Format settings, ReFrames : 2 frames
Codec ID : avc1
Codec ID/Info : Advanced Video Coding
Duration : 6h 38mn
Bit rate : 4 419 Kbps
Width : 1 920 pixels
Height : 1 080 pixels
Display aspect ratio : 16:9
Frame rate mode : Variable
Frame rate : 59.940 fps
Minimum frame rate : 59.920 fps
Maximum frame rate : 59.960 fps
Color space : YUV
Chroma subsampling : 4:2:0
Bit depth : 8 bits
Scan type : Progressive
Bits/(Pixel*Frame) : 0.036
Stream size : 12.3 GiB (97%)
Audio
ID : 2
Format : AAC
Format/Info : Advanced Audio Codec
Format profile : LC
Codec ID : 40
Duration : 6h 38mn
Bit rate mode : Constant
Bit rate : 126 Kbps
Channel(s) : 2 channels
Channel positions : Front: L R
Sampling rate : 44.1 KHz
Compression mode : Lossy
Stream size : 358 MiB (3%)













   Похожие торренты   Торрент   Размер 
В этой теме нет новых непрочитанных сообщений. Квантовый разлом / Quantum Break (2016) WEBRip 720p | D

2018 | 78

5.06 ГБ

В этой теме нет новых непрочитанных сообщений. Квантовый Апокалипсис / Quantum Apocalypse (2010) DVDRip

23 | 20

1.36 ГБ

В этой теме нет новых непрочитанных сообщений. Квантовый Апокалипсис / Quantum Apocalypse (2010) DVDRip

7 | 4

700.6 МБ

В этой теме нет новых непрочитанных сообщений. Uncharted 4: Путь вора / Uncharted 4: A Thief’s End (2016) WEBRip 1080p | Игрофильм | D

523 | 34

9.06 ГБ

В этой теме нет новых непрочитанных сообщений. Квантовый скачок / Quantum Jump (2013) WEB-DLRip от Generalfilm

209 | 40

75 МБ

В этой теме нет новых непрочитанных сообщений. Квантовый скачок / Quantum Jump (2013) WEB-DLRip 720 от SuperMin

70 | 2

132.61 МБ

В этой теме нет новых непрочитанных сообщений. Quantum Break [v 1.7.0.0] (2016) PC | Патч

108 | 2

337.39 МБ




Вы не можете начинать темы
Вы не можете отвечать на сообщения
Вы не можете редактировать свои сообщения
Вы не можете удалять свои сообщения
Вы не можете добавлять вложения

Перейти:  
Для Мосгорсуда, Роскомнадзора и рекламодателей: mosgorsud-torrent[собачка]yandex.ru
 Вход
ppkBB3cker v.2 © 2008-2014 @ PPK
[ Time : 0.021s | 14 Queries | GZIP : On ]
CGP output time : 0.090s | 5 Queries | GZIP : On

Торрент трекер RUTOR.IN, Не можете зайти на rutor.org? Какой новый адрес рутор? Какое зеркало рутор? Не работает rutor.org и зеркала? Тогда наш торрент специально для вас. Rutor.in неофициальное зеркало rutor. В случае если у Вас заблокирован rutor или вдруг Вы не можете на него зайти, то Вы без труда сможете скачать бесплатно и без рекламы последние новинки кино, игр, сериалов и прочего у нас, на Rutor.in. Не нужно использовать прокси, чтобы зайти на рутор, достаточно воспользоваться нашим ресурсом. Все новые фильмы, игры, сериалы, книги и музыка за 2013 и 2014 годы через торрент бесплатно. Скачивайте фильмы в хорошем качестве, игры для пк, xbox, playstation без регистрации. У нас вы найдете новые Зарубежные сериалы и Русские сериалы 2013, 2014, 2015 годов. Оставайтесь с нами, качайте любимые фильмы, игры, сериалы, книги и музыку.