img image001 image001 image001 image001 image001 image001 image001 image001 image001 image001 image001 image001 image001 image001 image001

Planets Sun Sun Sun
Статистика раздачи
Автор: PriZraK | Размер: 4.08 ГБ | Добавлен: 31 авг 2016
Раздают: 106    Качают: 14
Скачать торрент
Скачать торрент
Описание торрента

СообщениеДобавлено: 31 авг 2016 


Оригинальное название: Deus Ex: Mankind Divided
Год выпуска: 2016 г.
Разработчик игры: Eidos Montreal (Канада)
Создатель видео: GamingWalkDi
Жанр: Игрофильм
Продолжительность: 03:00:00

Перевод: Профессиональный (дублированный) [Бука]
Субтитры: Русский хардсаб [Диалоги, экранные надписи и тп.]

Режиссер: Жан-Франсуа Дугас
В ролях: Элиас Туфексис, Виктория Санчес, Чимвемве Миллер, Вернон Уэллс, Джеймс А. Вудс, Питер Серафинович, Карл Грабошас и др.

Описание:
На дворе 2029 год. Общество отвергло людей, установивших механические аугментации, и превратило их в совершенных изгоев.
Став тайным агентом, Адам Дженсен вынужден действовать в мире, который презирает ему подобных. Используя обновленный арсенал современного оружия и аугментаций, он должен найти верных людей и подобрать к ним подход, чтобы раскрыть впечатляющий всемирный заговор.

Дополнительная информация:
Данное видео позиционируется как ИГРОФИЛЬМ (без комментариев). В игрофильме присутствуют все основные сюжетные катсцены + урезанный геймплей (без всякой побочной шелухи, максимально сжато с 10 часов до 3, чтобы зритель не заскучал и не потерял нить сюжета).


Качество: WEBRip 1080p
Формат: MP4
Видео: MPEG-4 AVC Video (H.264) / 1920х1080 / 3108 kbps / 29.970 fps
Аудио: AAC, 2 channels, 44.1 kHz, 128 kbps

General
Complete name : Deus.Ex.Mankind.Divided.2016.D.WEBRip.1080p.mp4
Format : MPEG-4
Format profile : Base Media
Codec ID : isom
File size : 4.08 GiB
Duration : 3h 0mn
Overall bit rate : 3 244 Kbps
Writing application : Lavf56.40.101
Video
ID : 1
Format : AVC
Format/Info : Advanced Video Codec
Format profile : High@L4.0
Format settings, CABAC : Yes
Format settings, ReFrames : 2 frames
Codec ID : avc1
Codec ID/Info : Advanced Video Coding
Duration : 2h 59mn
Duration_FirstFrame : -33ms
Bit rate : 3 108 Kbps
Width : 1 920 pixels
Height : 1 080 pixels
Display aspect ratio : 16:9
Frame rate mode : Variable
Frame rate : 29.970 fps
Minimum frame rate : 29.970 fps
Maximum frame rate : 29.990 fps
Color space : YUV
Chroma subsampling : 4:2:0
Bit depth : 8 bits
Scan type : Progressive
Bits/(Pixel*Frame) : 0.050
Stream size : 3.91 GiB (96%)
Color primaries : BT.709
Transfer characteristics : BT.709
Matrix coefficients : BT.709
Color range : Limited
Audio
ID : 2
Format : AAC
Format/Info : Advanced Audio Codec
Format profile : LC
Codec ID : 40
Duration : 3h 0mn
Bit rate mode : Constant
Bit rate : 126 Kbps
Channel(s) : 2 channels
Channel positions : Front: L R
Sampling rate : 44.1 KHz
Compression mode : Lossy
Stream size : 162 MiB (4%)








   Похожие торренты   Торрент   Размер 
В этой теме нет новых непрочитанных сообщений. Deus Ex: Разделённое Человечество / Deus Ex: Mankind Divided (2016) WEBRip 720p

392 | 28

2.12 ГБ

В этой теме нет новых непрочитанных сообщений. OST - Deus Ex: Mankind Divided [Extended Edition] (2016) MP3

8 | 0

267.6 МБ

В этой теме нет новых непрочитанных сообщений. Deus Ex: Mankind Divided - A Criminal Past (2016) PC | Лицензия

16 | 5

45.85 ГБ

В этой теме нет новых непрочитанных сообщений. Deus Ex: Mankind Divided - Digital Deluxe Edition (2016) PC | RePack от X-NET

21 | 8

31.85 ГБ

В этой теме нет новых непрочитанных сообщений. Deus Ex: Mankind Divided - Digital Deluxe Edition (2016) PC | Лицензия

26 | 1

76.99 ГБ

В этой теме нет новых непрочитанных сообщений. Deus Ex: Mankind Divided - Digital Deluxe Edition (2016) PC | RePack от FitGirl

13 | 0

22.79 ГБ

В этой теме нет новых непрочитанных сообщений. Deus Ex: Mankind Divided - Digital Deluxe Edition (2016) PC | RePack от xatab

837 | 148

26.15 ГБ




Вы не можете начинать темы
Вы не можете отвечать на сообщения
Вы не можете редактировать свои сообщения
Вы не можете удалять свои сообщения
Вы не можете добавлять вложения

Перейти:  
Для Мосгорсуда, Роскомнадзора и рекламодателей: mosgorsud-torrent[собачка]yandex.ru
 Вход
ppkBB3cker v.2 © 2008-2014 @ PPK
[ Time : 0.045s | 16 Queries | GZIP : Off ]

Торрент трекер RUTOR.IN, Не можете зайти на rutor.org? Какой новый адрес рутор? Какое зеркало рутор? Не работает rutor.org и зеркала? Тогда наш торрент специально для вас. Rutor.in неофициальное зеркало rutor. В случае если у Вас заблокирован rutor или вдруг Вы не можете на него зайти, то Вы без труда сможете скачать бесплатно и без рекламы последние новинки кино, игр, сериалов и прочего у нас, на Rutor.in. Не нужно использовать прокси, чтобы зайти на рутор, достаточно воспользоваться нашим ресурсом. Все новые фильмы, игры, сериалы, книги и музыка за 2013 и 2014 годы через торрент бесплатно. Скачивайте фильмы в хорошем качестве, игры для пк, xbox, playstation без регистрации. У нас вы найдете новые Зарубежные сериалы и Русские сериалы 2013, 2014, 2015 годов. Оставайтесь с нами, качайте любимые фильмы, игры, сериалы, книги и музыку.
cron