img image001 image001 image001 image001 image001 image001 image001 image001 image001 image001 image001 image001 image001 image001 image001

Planets Sun Sun Sun
Статистика раздачи
Автор: PriZraK | Размер: 2.58 ГБ | Добавлен: 25 окт 2016
Раздают: 266    Качают: 8
Скачать торрент
Скачать торрент
Описание торрента

СообщениеДобавлено: 25 окт 2016 


Оригинальное название: Battlefield 1
Год выпуска: 2016 г.
Разработчик игры: EA Digital Illusions CE (Швеция)
Создатель видео: GamingWalkDi
Жанр: Игрофильм
Продолжительность: 01:46:33

Перевод: Профессиональный (дублированный) [EA Russia]
Субтитры: Русский хардсаб [Диалоги, экранные надписи и тп.]

Режиссер: Ларс Густафссон
В ролях: Антонио Алварез, Джефф Берг, Марк Боннар, Марк Холден, Майкл Джибсон, Джек Лауден, Питер О'Брайан и др.

Описание:
Battlefield 1 погружает нас в короткие отрывки из жизни пятерых совершенно разных героев Первой Мировой на протяжение нескольких последовательных миссий. Водитель танка, пилот самолета, штурмовик в тяжелой броне, посыльный и, наконец, воин пустыни. Им предстоит вступить в сражения в самых масштабных битвах, которые развиваются как на улицах городов, так и на обширных просторах итальянских Альп и аравийских песчаных дюн. Станьте свидетелем зарождения современной войны, разрушения старого мира и появления нового.
Дополнительная информация:
Данное видео позиционируется как ИГРОФИЛЬМ (без комментариев). В игрофильме присутствуют все основные сюжетные катсцены + урезанный геймплей (только геймплей, который делает игрофильм цельным и сцены плавно перетекающие из геймплея в катсцену).


Качество: WEBRip 1080p
Формат: MP4
Видео: MPEG-4 AVC Video (H.264) / 1920х1080 / 3337 kbps / 29.970 fps
Аудио: AAC, 2 channels, 44.1 kHz, 128 kbps

General
Complete name : Battlefield.1.2016.D.WEBRip.1080p.mp4
Format : MPEG-4
Format profile : Base Media
Codec ID : isom
File size : 2.58 GiB
Duration : 1h 46mn
Overall bit rate : 3 471 Kbps
Writing application : Lavf56.40.101
Video
ID : 1
Format : AVC
Format/Info : Advanced Video Codec
Format profile : High@L4.0
Format settings, CABAC : Yes
Format settings, ReFrames : 2 frames
Codec ID : avc1
Codec ID/Info : Advanced Video Coding
Duration : 1h 46mn
Duration_FirstFrame : -33ms
Bit rate : 3 337 Kbps
Width : 1 920 pixels
Height : 1 080 pixels
Display aspect ratio : 16:9
Frame rate mode : Variable
Frame rate : 29.970 fps
Minimum frame rate : 29.970 fps
Maximum frame rate : 29.990 fps
Color space : YUV
Chroma subsampling : 4:2:0
Bit depth : 8 bits
Scan type : Progressive
Bits/(Pixel*Frame) : 0.054
Stream size : 2.48 GiB (96%)
Color primaries : BT.709
Transfer characteristics : BT.709
Matrix coefficients : BT.709
Color range : Limited
Audio
ID : 2
Format : AAC
Format/Info : Advanced Audio Codec
Format profile : LC
Codec ID : 40
Duration : 1h 46mn
Bit rate mode : Constant
Bit rate : 126 Kbps
Channel(s) : 2 channels
Channel positions : Front: L R
Sampling rate : 44.1 KHz
Compression mode : Lossy
Stream size : 95.7 MiB (4%)







   Похожие торренты   Торрент   Размер 
В этой теме нет новых непрочитанных сообщений. Battlefield 1 (2016) WEBRip 720p | D

107 | 3

1.37 ГБ

В этой теме нет новых непрочитанных сообщений. Battlefield 2: Карты / Battlefield 2: Maps (2006) PC

379 | 11

170.59 МБ

В этой теме нет новых непрочитанных сообщений. Поле битвы: Земля / Battlefield Earth / Battlefield Earth: A Saga of the Year 3000 (2000) BD-Remux | Расширенная Версия

75 | 14

19.23 ГБ

В этой теме нет новых непрочитанных сообщений. Поле битвы: Земля / Battlefield Earth / Battlefield Earth: A Saga of the Year 3000 (2000) BDRip от Rulya74 / Расширенная Версия

29 | 5

2.19 ГБ

В этой теме нет новых непрочитанных сообщений. Battlefield Hardline (2015) HD 1080p | Трейлер

979 | 54

46.24 МБ

В этой теме нет новых непрочитанных сообщений. Мобильный доспех Гандам: Боевые хроники / Mobile Suit Gundam Battlefield Record: Avant Title (2009) WEBRip 720p от Azazel | L1

24 | 5

114.69 МБ

В этой теме нет новых непрочитанных сообщений. Алые паруса [эфир от 2016.06.25] (2016) WEBRip 1080p от Files-x

17 | 3

5.01 ГБ




Вы не можете начинать темы
Вы не можете отвечать на сообщения
Вы не можете редактировать свои сообщения
Вы не можете удалять свои сообщения
Вы не можете добавлять вложения

Перейти:  
Для Мосгорсуда, Роскомнадзора и рекламодателей: mosgorsud-torrent[собачка]yandex.ru
 Вход
ppkBB3cker v.2 © 2008-2014 @ PPK
[ Time : 0.563s | 14 Queries | GZIP : On ]

Торрент трекер RUTOR.IN, Не можете зайти на rutor.org? Какой новый адрес рутор? Какое зеркало рутор? Не работает rutor.org и зеркала? Тогда наш торрент специально для вас. Rutor.in неофициальное зеркало rutor. В случае если у Вас заблокирован rutor или вдруг Вы не можете на него зайти, то Вы без труда сможете скачать бесплатно и без рекламы последние новинки кино, игр, сериалов и прочего у нас, на Rutor.in. Не нужно использовать прокси, чтобы зайти на рутор, достаточно воспользоваться нашим ресурсом. Все новые фильмы, игры, сериалы, книги и музыка за 2013 и 2014 годы через торрент бесплатно. Скачивайте фильмы в хорошем качестве, игры для пк, xbox, playstation без регистрации. У нас вы найдете новые Зарубежные сериалы и Русские сериалы 2013, 2014, 2015 годов. Оставайтесь с нами, качайте любимые фильмы, игры, сериалы, книги и музыку.