img image001 image001 image001 image001 image001 image001 image001 image001 image001 image001 image001 image001 image001 image001 image001

Planets Sun Sun Sun
Статистика раздачи
Автор: PriZraK | Размер: 45.27 МБ | Добавлен: 07 ноя 2016
Раздают: 23    Качают: 0
Скачать торрент
Скачать торрент
Описание торрента

СообщениеДобавлено: 07 ноя 2016 


Информация о фильме
Название: Песочник
Оригинальное название: Piper
Год выхода: 2016
Жанр: Мультфильм, семейный, короткометражный
Режиссер: Алан Барилларо
В ролях: iper
О фильме:
тая представителей бекасовых охотится за едой у побережья, бросаясь клевать на песок, когда волна уходит, а когда наступает, они убегают. Одна маленькая представительца семейства бекасовых так воодушевлена своей мамой, что решается присоединиться к стае, но ей не удалось вовремя отступить, поэтому она полностью промокла от волны. Происшествие оставляет её запуганной водой; она отказывается покидать гнездышко, но скоро замечает группу раков-отшельников, закапывающихся в песок в поиске еды, оставаясь защищенными от волн. Копируя их поведение, птичка узрела красоту подводного мира и стала умелой в поиске еды для стаи.

Страна: США
Студия: Pixar Animation Studios, Walt Disney Pictures
Продолжительность: 00:06:06
Перевод: Не требуется
Файл
Кодек: XviD
Качество: HDRip
Видео: 624x352 (1.77:1), 23.976 fps, XviD build 73 ~900 kbps avg, 0.17 bit/pixel
Звук: 48 kHz, MPEG Layer 3, 2 ch, ~128.00 kbps avg
Субтитры: Отсутствуют
Семпл
General
Complete name : D:Изготовление рипаPiper.(2016).HDRip by shkiper.avi
Format : AVI
Format/Info : Audio Video Interleave
File size : 45.3 MiB
Duration : 6 min 5 s
Overall bit rate : 1 038 kb/s
Writing application : VirtualDubMod 1.5.10.3 | www.virtualdub-fr.org || (build 2550/release)
Writing library : VirtualDubMod build 2550/release
Video
ID : 0
Format : MPEG-4 Visual
Format profile : Advanced Simple@L5
Format settings, BVOP : 1
Format settings, QPel : No
Format settings, GMC : No warppoints
Format settings, Matrix : Custom
Codec ID : XVID
Codec ID/Hint : XviD
Duration : 6 min 5 s
Bit rate : 901 kb/s
Width : 624 pixels
Height : 352 pixels
Display aspect ratio : 16:9
Frame rate : 23.976 (24000/1001) FPS
Color space : YUV
Chroma subsampling : 4:2:0
Bit depth : 8 bits
Scan type : Progressive
Compression mode : Lossy
Bits/(Pixel*Frame) : 0.171
Stream size : 39.3 MiB (87%)
Writing library : XviD 73
Audio
ID : 1
Format : MPEG Audio
Format version : Version 1
Format profile : Layer 3
Codec ID : 55
Codec ID/Hint : MP3
Duration : 6 min 5 s
Bit rate mode : Constant
Bit rate : 128 kb/s
Channel(s) : 2 channels
Sampling rate : 48.0 kHz
Compression mode : Lossy
Stream size : 5.58 MiB (12%)
Alignment : Aligned on interleaves
Interleave, duration : 42 ms (1.00 video frame)
Interleave, preload duration : 504 ms
Writing library : LAME3.99r
Encoding settings : -m s -V 4 -q 2 -lowpass 17 -b 128

Релиз от:



   Похожие торренты   Торрент   Размер 
В этой теме нет новых непрочитанных сообщений. Песочник / Piper (2016) BDRip 1080p

109 | 0

210.48 МБ

В этой теме нет новых непрочитанных сообщений. Песочник / Piper (2016) BDRip от Koenig

29 | 0

98.4 МБ

В этой теме нет новых непрочитанных сообщений. Песочник / Piper (2016) BDRip 720p от Koenig

17 | 0

171.32 МБ

В этой теме нет новых непрочитанных сообщений. Pink Floyd - The Piper at the Gates of Dawn [Mastered from the Original Master Tapes] (2016) WavPack

3 | 0

2.39 ГБ

В этой теме нет новых непрочитанных сообщений. Конец дня / Daylight's End (2016) HDRip от ImperiaFilm | L1

71 | 12

746.77 МБ

В этой теме нет новых непрочитанных сообщений. Восставший / Risen (2016) HDRip от ImperiaFilm | L | КПК

141 | 10

367.99 МБ

В этой теме нет новых непрочитанных сообщений. Защитники (2016) HDRip от ImperiaFilm | Лицензия

85 | 12

749.65 МБ




Вы не можете начинать темы
Вы не можете отвечать на сообщения
Вы не можете редактировать свои сообщения
Вы не можете удалять свои сообщения
Вы не можете добавлять вложения

Перейти:  
Для Мосгорсуда, Роскомнадзора и рекламодателей: mosgorsud-torrent[собачка]yandex.ru
 Вход
ppkBB3cker v.2 © 2008-2014 @ PPK
[ Time : 0.039s | 16 Queries | GZIP : Off ]

cron