img image001 image001 image001 image001 image001 image001 image001 image001 image001 image001 image001 image001 image001 image001 image001

Planets Sun Sun Sun
Статистика раздачи
Автор: PriZraK | Размер: 1.45 ГБ | Добавлен: 07 ноя 2016
Раздают: 16    Качают: 7
Скачать торрент
Скачать торрент
Описание торрента

СообщениеДобавлено: 07 ноя 2016 


Информация о фильме
Название: Полный расколбас (Сосисочная вечеринка)
Оригинальное название: Sausage Party
Год выпуска: 2016
Жанр: Мультфильм для взрослых, фэнтези, комедия, приключения, полнометражный
Режиссеры: Грег Тирнан, Конрад Вернон
В ролях: Сет Роген, Кристен Уиг, Джона Хилл, Дэнни МакБрайд, Майкл Сера, Крэйг Робинсон, Пол Радд, Ник Кролл, Эдвард Нортон, Джеймс Франко, Билл Хейдер, Сальма Хайек
О фильме:
Первая анимационная комедия для взрослых о невероятных приключениях еды из супермаркета. Съедобным друзьям предстоит получить ответ на главный вопрос: есть ли жизнь за стенами супермаркета и что же происходит с продуктами после того, как они попадают к людям домой?

Страна: США
Студия: Annapurna Pictures, Columbia Pictures, Nitrogen Studios Canada, Point Grey Pictures
Продолжительность: 01:28:45
Перевод: Профессиональный (полное дублирование) | Лицензия
Файл
Формат: AVI
Качество: BDRip
Видео: XviD build 73, 704x384 (1.85:1), 23.976 fps, 1886 Kbps (0.291 bit/pixel)
Звук: 48.0 kHz, AC3 Dolby Digital, 5/1 (L C R, Side: L R, LFE) ch, 448 kbps
Субтитры: Русские (на надписи и прочее) - форсированные
General
Complete name : Polnyj.Raskolbas.2016.XviD.Lic.BDRip.GeneralFilm.avi
Format : AVI
Format/Info : Audio Video Interleave
File size : 1.45 GiB
Duration : 1h 28mn
Overall bit rate : 2 344 Kbps
Writing application : VirtualDubMod 1.5.10.3 | www.virtualdub-fr.org || (build 2550/release)
Writing library : VirtualDubMod build 2550/release
Video
ID : 0
Format : MPEG-4 Visual
Format profile : Advanced Simple@L5
Format settings, BVOP : 1
Format settings, QPel : No
Format settings, GMC : No warppoints
Format settings, Matrix : Custom
Codec ID : XVID
Codec ID/Hint : XviD
Duration : 1h 28mn
Bit rate : 1 886 Kbps
Width : 704 pixels
Height : 384 pixels
Display aspect ratio : 1.85:1
Frame rate : 23.976 (23976/1000) fps
Color space : YUV
Chroma subsampling : 4:2:0
Bit depth : 8 bits
Scan type : Progressive
Compression mode : Lossy
Bits/(Pixel*Frame) : 0.291
Stream size : 1.17 GiB (80%)
Writing library : XviD 73
Audio
ID : 1
Format : AC-3
Format/Info : Audio Coding 3
Mode extension : CM (complete main)
Format settings, Endianness : Big
Codec ID : 2000
Duration : 1h 28mn
Bit rate mode : Constant
Bit rate : 448 Kbps
Channel(s) : 6 channels
Channel positions : Front: L C R, Side: L R, LFE
Sampling rate : 48.0 KHz
Frame rate : 31.250 fps (1536 spf)
Compression mode : Lossy
Stream size : 284 MiB (19%)
Alignment : Split accross interleaves
Interleave, duration : 42 ms (1.00 video frame)
Interleave, preload duratio : 500 ms



Релиз от:
Исходник: SAUSAGE_PARTY_HDCLUB



   Похожие торренты   Торрент   Размер 
В этой теме нет новых непрочитанных сообщений. Полный расколбас / Sausage Party (2016) BDRip от GeneralFilm | Лицензия

1 | 0

1.45 ГБ

В этой теме нет новых непрочитанных сообщений. Полный расколбас / Sausage Party (2016) BDRip 1080p | Лицензия

141 | 23

7.33 ГБ

В этой теме нет новых непрочитанных сообщений. Полный расколбас / Sausage Party (2016) BDRip от Kaztorrents | КПК | Лицензия

50 | 8

487.34 МБ

В этой теме нет новых непрочитанных сообщений. Полный расколбас / Sausage Party (2016) BDRip 720p | Лицензия

460 | 24

4.93 ГБ

В этой теме нет новых непрочитанных сообщений. Полный расколбас / Sausage Party (2016) BDRip от MegaPeer | Лицензия

439 | 15

1.46 ГБ

В этой теме нет новых непрочитанных сообщений. Полный расколбас / Sausage Party (2016) BDRip от MegaPeer | Лицензия

15 | 5

745.24 МБ

В этой теме нет новых непрочитанных сообщений. Полный расколбас / Sausage Party (2016) BDRip-AVC от ExKinoRay | Лицензия

299 | 17

1.72 ГБ




Вы не можете начинать темы
Вы не можете отвечать на сообщения
Вы не можете редактировать свои сообщения
Вы не можете удалять свои сообщения
Вы не можете добавлять вложения

Перейти:  
Для Мосгорсуда, Роскомнадзора и рекламодателей: mosgorsud-torrent[собачка]yandex.ru
 Вход
ppkBB3cker v.2 © 2008-2014 @ PPK
[ Time : 0.052s | 16 Queries | GZIP : Off ]

cron