img image001 image001 image001 image001 image001 image001 image001 image001 image001 image001 image001 image001 image001 image001 image001

Planets Sun Sun Sun
Статистика раздачи
Автор: PriZraK | Размер: 5.28 ГБ | Добавлен: 08 ноя 2016
Раздают: 89    Качают: 11
Скачать торрент
Скачать торрент
Описание торрента

СообщениеДобавлено: 08 ноя 2016 


Оригинальное название: Call of Duty: Infinite Warfare
Год выпуска: 2016 г.
Разработчик игры: Infinity Ward (США)
Создатель видео: GamingWalkDi
Жанр: Игрофильм
Продолжительность: 03:14:45

Перевод: Профессиональный (дублированный) [1C]
Субтитры: Русский хардсаб [Диалоги, экранные надписи и тп.]

Режиссеры: Джейкоб Минкофф, Джордан Херш, Брайан Брайт
В ролях: Брайан Блум, Клаудия Кристиан, Дэвид Хэрвуд, Эрик Ладин, Джейми Грей Хайдер, Джейсон Бэрри, Кит Харингтон и др.

Описание:
Call of Duty: Infinite Warfare – очередная часть в популярной серии шутеров от первого лица Call of Duty, в которой вас ждут грандиозные сражения, незабываемые персонажи, увлекательный кинематографический сюжет, а также новый эпический сеттинг. Впервые в истории серии противостояние развернется за пределами Земли на обширных пространствах Солнечной системы. Вам предстоит вжиться в роль Рейеса – первого пилота одного из последних оставшихся огромных боевых кораблей земного флота – Retribution, выполняющего также роль вашей базы во время путешествий по Солнечной системе.
Дополнительная информация:
Данное видео позиционируется как ИГРОФИЛЬМ (без комментариев). В игрофильме присутствуют все катсцены + урезанный геймплей до минимума (все диалоги сохранены, переходы между CGI и геймплейные съёмки тоже сохранены, укорочены перестрелки до минимума).


Качество: WEBRip 1080p
Формат: MP4
Видео: MPEG-4 AVC Video (H.264) / 1920х1080 / 3742 kbps / 29.970 fps
Аудио: AAC, 2 channels, 44.1 kHz, 128 kbps

General
Complete name : Call.of.Duty.Infinite.Warfare.2016.D.WEBRip.1080p.mp4
Format : MPEG-4
Format profile : Base Media
Codec ID : isom
File size : 5.28 GiB
Duration : 3h 14mn
Overall bit rate : 3 878 Kbps
Writing application : Lavf56.40.101
Video
ID : 1
Format : AVC
Format/Info : Advanced Video Codec
Format profile : High@L4.0
Format settings, CABAC : Yes
Format settings, ReFrames : 2 frames
Codec ID : avc1
Codec ID/Info : Advanced Video Coding
Duration : 3h 14mn
Duration_FirstFrame : -33ms
Bit rate : 3 742 Kbps
Width : 1 920 pixels
Height : 1 080 pixels
Display aspect ratio : 16:9
Frame rate mode : Variable
Frame rate : 29.970 fps
Minimum frame rate : 29.970 fps
Maximum frame rate : 29.990 fps
Color space : YUV
Chroma subsampling : 4:2:0
Bit depth : 8 bits
Scan type : Progressive
Bits/(Pixel*Frame) : 0.060
Stream size : 5.09 GiB (97%)
Color primaries : BT.709
Transfer characteristics : BT.709
Matrix coefficients : BT.709
Color range : Limited
Audio
ID : 2
Format : AAC
Format/Info : Advanced Audio Codec
Format profile : LC
Codec ID : 40
Duration : 3h 14mn
Bit rate mode : Constant
Bit rate : 126 Kbps
Channel(s) : 2 channels
Channel positions : Front: L R
Sampling rate : 44.1 KHz
Compression mode : Lossy
Stream size : 175 MiB (3%)







   Похожие торренты   Торрент   Размер 
В этой теме нет новых непрочитанных сообщений. Call of Duty: Infinite Warfare (2016) WEBRip 1080p | Трейлер

139 | 6

133.86 МБ

В этой теме нет новых непрочитанных сообщений. Call of Duty: Infinite Warfare (2016) WEBRip 720p | D

109 | 17

2.84 ГБ

В этой теме нет новых непрочитанных сообщений. OST - Call of Duty: Infinite Warfare (2016) FLAC

37 | 8

394.31 МБ

В этой теме нет новых непрочитанных сообщений. Call of Duty: Infinite Warfare - Digital Deluxe Edition (2016) PC | RiP от R.G. Freedom

327 | 151

45.53 ГБ

В этой теме нет новых непрочитанных сообщений. Call of Duty: Infinite Warfare - Digital Deluxe Edition (2016) PC | RePack от X-NET

138 | 63

66.85 ГБ

В этой теме нет новых непрочитанных сообщений. Call of Duty: Infinite Warfare - Digital Deluxe Edition (2016) PC | Лицензия

152 | 122

105.75 ГБ

В этой теме нет новых непрочитанных сообщений. Call of Duty: Infinite Warfare - Digital Deluxe Edition (2016) PC | RiP от Decepticon

408 | 179

46.9 ГБ




Вы не можете начинать темы
Вы не можете отвечать на сообщения
Вы не можете редактировать свои сообщения
Вы не можете удалять свои сообщения
Вы не можете добавлять вложения

Перейти:  
Для Мосгорсуда, Роскомнадзора и рекламодателей: mosgorsud-torrent[собачка]yandex.ru
 Вход
ppkBB3cker v.2 © 2008-2014 @ PPK
[ Time : 0.056s | 15 Queries | GZIP : On ]

Торрент трекер RUTOR.IN, Не можете зайти на rutor.org? Какой новый адрес рутор? Какое зеркало рутор? Не работает rutor.org и зеркала? Тогда наш торрент специально для вас. Rutor.in неофициальное зеркало rutor. В случае если у Вас заблокирован rutor или вдруг Вы не можете на него зайти, то Вы без труда сможете скачать бесплатно и без рекламы последние новинки кино, игр, сериалов и прочего у нас, на Rutor.in. Не нужно использовать прокси, чтобы зайти на рутор, достаточно воспользоваться нашим ресурсом. Все новые фильмы, игры, сериалы, книги и музыка за 2013 и 2014 годы через торрент бесплатно. Скачивайте фильмы в хорошем качестве, игры для пк, xbox, playstation без регистрации. У нас вы найдете новые Зарубежные сериалы и Русские сериалы 2013, 2014, 2015 годов. Оставайтесь с нами, качайте любимые фильмы, игры, сериалы, книги и музыку.