img image001 image001 image001 image001 image001 image001 image001 image001 image001 image001 image001 image001 image001 image001 image001

Planets Sun Sun Sun
Статистика раздачи
Автор: PriZraK | Размер: 4.03 ГБ | Добавлен: 11 янв 2017
Раздают: 130    Качают: 2
Скачать торрент
Скачать торрент
Описание торрента

СообщениеДобавлено: 11 янв 2017 



Информация о фильме
Название: Найди меня, если сможешь / Приди и найди меня
Оригинальное название: Come and Find Me
Год выхода: 2016
Жанр: триллер, драма
Режиссер: Зак Уэдон
В ролях: Аарон Пол, Аннабелль Уоллис, Гаррет Диллахант, Валери Тиан, Захари Найтон, Терри Чен, Джордана Ларги, Дин Редман, Майкл Копса, Джессика Хифи

О фильме:
Идеальным отношениям Давида и Клэр приходит внезапный и таинственный конец после того, как Клэр бесследно исчезает. Опустошённый, но не теряющий надежды, Дэвид идёт по её следам, несмотря на нарастающее безумие и опасность. Выяснив, что Клэр ведёт двойную жизнь, он вынужден рисковать всем, чтобы снова её увидеть.

Рекламы нет

Страна: Великобритания
Продолжительность: 01:52:23
Перевод: Профессиональный (многоголосый, закадровый) [Чистый звук]

Файл
Кодек: MKV
Качество: WEB-DL 1080p
Видео: AVC, 1912x796 (2.40:1), 4469 kbps (0.122 b/px), 23.976 fps
Звук:
Аудио #1: AC3, 192 kbps (CBR), 48.0 KHz (16 bits), 2 ch, Russian
Аудио #2: AC3, 384 kbps (CBR), 48.0 KHz (16 bits), 6 ch, English
Субтитры: Английские
Код:
General
Unique ID                                : 217694647950959680640253640509729218036 (0xA3C676D0B5B68A23B93CF053C50F1DF4)
Complete name                            : D:ФИЛЬМЫCome and Find Me.2O16.P.WEBDL.1080p.mkv
Format                                   : Matroska
Format version                           : Version 4 / Version 2
File size                                : 4.03 GiB
Duration                                 : 1h 52mn
Overall bit rate                         : 5 147 Kbps
Encoded date                             : UTC 2017-01-10 12:03:14
Writing application                      : mkvmerge v6.8.0 ('Theme for Great Cities') 32bit built on Mar  2 2014 21:27:07
Writing library                          : libebml v1.3.0 + libmatroska v1.4.1

Video
ID                                       : 1
Format                                   : AVC
Format/Info                              : Advanced Video Codec
Format profile                           : High@L4.0
Format settings, CABAC                   : Yes
Format settings, ReFrames                : 5 frames
Codec ID                                 : V_MPEG4/ISO/AVC
Duration                                 : 1h 52mn
Bit rate                                 : 4 468 Kbps
Width                                    : 1 912 pixels
Height                                   : 796 pixels
Display aspect ratio                     : 2.40:1
Frame rate mode                          : Constant
Frame rate                               : 23.976 fps
Color space                              : YUV
Chroma subsampling                       : 4:2:0
Bit depth                                : 8 bits
Scan type                                : Progressive
Bits/(Pixel*Frame)                       : 0.122
Stream size                              : 3.50 GiB (87%)
Language                                 : English
Default                                  : Yes
Forced                                   : No
Color primaries                          : BT.709
Transfer characteristics                 : BT.709
Matrix coefficients                      : BT.709

Audio #1
ID                                       : 2
Format                                   : AC-3
Format/Info                              : Audio Coding 3
Mode extension                           : CM (complete main)
Format settings, Endianness              : Big
Codec ID                                 : A_AC3
Duration                                 : 1h 52mn
Bit rate mode                            : Constant
Bit rate                                 : 192 Kbps
Channel(s)                               : 2 channels
Channel positions                        : Front: L R
Sampling rate                            : 48.0 KHz
Bit depth                                : 16 bits
Compression mode                         : Lossy
Stream size                              : 154 MiB (4%)
Language                                 : Russian
Default                                  : Yes
Forced                                   : Yes

Audio #2
ID                                       : 3
Format                                   : AC-3
Format/Info                              : Audio Coding 3
Mode extension                           : CM (complete main)
Format settings, Endianness              : Big
Codec ID                                 : A_AC3
Duration                                 : 1h 52mn
Bit rate mode                            : Constant
Bit rate                                 : 384 Kbps
Channel(s)                               : 6 channels
Channel positions                        : Front: L C R, Side: L R, LFE
Sampling rate                            : 48.0 KHz
Bit depth                                : 16 bits
Compression mode                         : Lossy
Stream size                              : 308 MiB (7%)
Language                                 : English
Default                                  : No
Forced                                   : No

Text
ID                                       : 4
Format                                   : UTF-8
Codec ID                                 : S_TEXT/UTF8
Codec ID/Info                            : UTF-8 Plain Text
Language                                 : English
Default                                  : Yes
Forced                                   : No

Menu
00:00:00.000                             : en:1
00:10:26.000                             : en:2
00:21:17.000                             : en:3
00:31:41.000                             : en:4
00:40:13.000                             : en:5
00:51:13.000                             : en:6
01:02:03.000                             : en:7
01:14:57.000                             : en:8
01:24:28.000                             : en:9
01:34:11.000                             : en:10
01:47:21.000                             : en:11





   Похожие торренты   Торрент   Размер 
В этой теме нет новых непрочитанных сообщений. Найди меня, если сможешь / Come and Find Me (2016) BDRip 1080p | Р

67 | 1

10.94 ГБ

В этой теме нет новых непрочитанных сообщений. Найди меня, если сможешь / Come and Find Me (2016) BDRip 1080p | iTunes

28 | 5

12.11 ГБ

В этой теме нет новых непрочитанных сообщений. Найди меня, если сможешь / Come and Find Me (2016) HDRip | Р

263 | 3

1.37 ГБ

В этой теме нет новых непрочитанных сообщений. Найди меня, если сможешь / Come and Find Me (2016) HDRip от Portablius | Р

33 | 0

745.49 МБ

В этой теме нет новых непрочитанных сообщений. Найди меня, если сможешь / Come and Find Me (2016) HDRip | iTunes

105 | 10

1.37 ГБ

В этой теме нет новых непрочитанных сообщений. Найди меня, если сможешь / Come and Find Me (2016) BDRip от MegaPeer | Р

14 | 0

1.41 ГБ

В этой теме нет новых непрочитанных сообщений. Найди меня, если сможешь / Come and Find Me (2016) BDRip 720p | Р

70 | 3

6.09 ГБ




Вы не можете начинать темы
Вы не можете отвечать на сообщения
Вы не можете редактировать свои сообщения
Вы не можете удалять свои сообщения
Вы не можете добавлять вложения

Перейти:  
Для Мосгорсуда, Роскомнадзора и рекламодателей: mosgorsud-torrent[собачка]yandex.ru
 Вход
ppkBB3cker v.2 © 2008-2014 @ PPK
[ Time : 0.080s | 16 Queries | GZIP : Off ]

cron