img image001 image001 image001 image001 image001 image001 image001 image001 image001 image001 image001 image001 image001 image001 image001

Planets Sun Sun Sun
Статистика раздачи
Автор: Nickolas3434 | Размер: 1.08 ГБ | Добавлен: 21 ноя 2017
Раздают: 194    Качают: 4
Скачать торрент
Скачать торрент
Описание торрента

СообщениеДобавлено: 21 ноя 2017 

Производство: США
Жанр: фантастика
Режиссер: Эндрю Беллвар
Актеры: Вирджиния Логан, Мэри Мерфи, Мэттью Трамбалл, Anne Michelle Abbot, Don Arrup, Кейт Бриттон, Kimball Brown, Стив Дейган, Anouk Dutruit
Описание: В недалеком будущем, когда каждый житель общества контролируется машинами, терроризм заставил государство ввести военное положение. Во время обычной проверки в многоэтажной квартире хорошо вооруженный полицейский и партнер- андроид обнаруживают, что что-то заставляет жителей зданий «срываться», заставляя нападать на других. Однако, когда они продолжают расследование, то раскрывают секрет, который правительство все время пыталось скрыть.

Продолжительность: 01:21:04
Качество видео: DVDRip-AVC
Перевод: Любительский, одноголосый [Хихикающий доктор]
Видео: 720x304 (2.35:1), 23.976 fps, XviD build 63 ~1657 kbps avg
Аудио: 44.100 kHz, MPEG Layer 3, 2 ch, ~192.00 kbps avg
Format : Matroska
Format version : Version 4 / Version 2
File size : 1.08 GiB
Duration : 1h 21mn
Overall bit rate mode : Variable
Overall bit rate : 1 887 Kbps
Encoded date : UTC 2017-11-21 10:14:09
Writing application : mkvmerge v15.0.0 ('Duel with the Devil') 64-bit
Writing library : libebml v1.3.5 + libmatroska v1.4.5
DURATION : 01:21:49.322000000
NUMBER_OF_FRAMES : 187935
NUMBER_OF_BYTES : 117823739
_STATISTICS_WRITING_APP : mkvmerge v15.0.0 ('Duel with the Devil') 64-bit
_STATISTICS_WRITING_DATE_UTC : 2017-11-21 10:14:09
_STATISTICS_TAGS : BPS DURATION NUMBER_OF_FRAMES NUMBER_OF_BYTES
Video
ID : 1
Format : AVC
Format/Info : Advanced Video Codec
Format profile : High@L4.1
Format settings, CABAC : Yes
Format settings, ReFrames : 3 frames
Codec ID : V_MPEG4/ISO/AVC
Duration : 1h 21mn
Bit rate mode : Variable
Bit rate : 1 657 Kbps
Maximum bit rate : 40.0 Mbps
Width : 720 pixels
Height : 304 pixels
Display aspect ratio : 2.35:1
Frame rate mode : Constant
Frame rate : 23.976 fps
Color space : YUV
Chroma subsampling : 4:2:0
Bit depth : 8 bits
Scan type : Progressive
Bits/(Pixel*Frame) : 0.316
Stream size : 970 MiB (88%)
Writing library : x264 core 146 r2538 121396c
Encoding settings : cabac=1 / ref=4 / deblock=1:-1:-1 / analyse=0x3:0x113 / me=umh / subme=9 / psy=1 / psy_rd=1.00:0.15 / mixed_ref=1 / me_range=18 / chroma_me=1 / trellis=2 / 8x8dct=1 / cqm=0 / deadzone=21,11 / fast_pskip=0 / chroma_qp_offset=-3 / threads=12 / lookahead_threads=1 / sliced_threads=0 / slices=4 / nr=0 / decimate=1 / interlaced=0 / bluray_compat=0 / constrained_intra=0 / bframes=3 / b_pyramid=1 / b_adapt=2 / b_bias=0 / direct=1 / weightb=1 / open_gop=0 / weightp=0 / keyint=23 / keyint_min=1 / scenecut=40 / intra_refresh=0 / rc_lookahead=23 / rc=crf / mbtree=1 / crf=21.0 / qcomp=0.60 / qpmin=10 / qpmax=51 / qpstep=4 / vbv_maxrate=40000 / vbv_bufsize=30000 / crf_max=0.0 / nal_hrd=vbr / filler=0 / ip_ratio=1.40 / aq=1:1.00
Default : Yes
Forced : No
Color primaries : BT.709
Transfer characteristics : BT.709
Matrix coefficients : BT.709
Color range : Full
Audio
ID : 2
Format : MPEG Audio
Format version : Version 1
Format profile : Layer 3
Codec ID : A_MPEG/L3
Codec ID/Hint : MP3
Duration : 1h 21mn
Bit rate mode : Constant
Bit rate : 192 Kbps
Channel(s) : 2 channels
Sampling rate : 44.1 KHz
Compression mode : Lossy
Stream size : 112 MiB (10%)
Default : Yes
Forced : No

В титрах небольшая реклама.



   Похожие торренты   Торрент   Размер 
В этой теме нет новых непрочитанных сообщений. Робот Джокс / Роботы Бойцы / Война Роботов / Robot Jox (1990) DVDRip-AVC

8 | 14

2.11 ГБ

В этой теме нет новых непрочитанных сообщений. Робот Джокс / Роботы Бойцы / Война Роботов / Robot Jox (1990) DVDRip-AVC

29 | 9

1.34 ГБ

В этой теме нет новых непрочитанных сообщений. Будущее с Джеймсом Вудсом: Революция роботов / Futurescape: Robot Revolution [1] (2014) IPTVRip-AVC

274 | 41

398.34 МБ

В этой теме нет новых непрочитанных сообщений. Войны роботов: Робот Джокс 2 / Robot Wars: Robot Jox 2 (1993) DVDRip

25 | 6

1.43 ГБ

В этой теме нет новых непрочитанных сообщений. Истории роботов / Robot Stories (2003) DVDRip | P

95 | 27

1.33 ГБ

В этой теме нет новых непрочитанных сообщений. Боевая башня / Ганхед: Война роботов / Gunhed / Ganheddo (1989) DVDRip

10 | 5

1.45 ГБ

В этой теме нет новых непрочитанных сообщений. Войны роботов / Robot Wars / Kill Box (2016) WEB-DLRip | L

140 | 4

1.37 ГБ




Вы не можете начинать темы
Вы не можете отвечать на сообщения
Вы не можете редактировать свои сообщения
Вы не можете удалять свои сообщения
Вы не можете добавлять вложения

Перейти:  
Для Мосгорсуда, Роскомнадзора и рекламодателей: mosgorsud-torrent[собачка]yandex.ru
 Вход
ppkBB3cker v.2 © 2008-2014 @ PPK
[ Time : 0.047s | 19 Queries | GZIP : Off ]

cron