img image001 image001 image001 image001 image001 image001 image001 image001 image001 image001 image001 image001 image001 image001 image001

Planets Sun Sun Sun
Статистика раздачи
Автор: Nickolas3434 | Размер: 1.35 ГБ | Добавлен: 21 ноя 2017
Раздают: 57    Качают: 3
Скачать торрент
Скачать торрент
Описание торрента

СообщениеДобавлено: 21 ноя 2017 

Информация о фильме
Название: 6.66 вечера
Оригинальное название: 6:66 PM
Год выхода: 2017
Жанр: Ужасы, комедия
Режиссер: Джим Клок
В ролях: Джим Клок, Чад Риджли, Отем Федеричи, Майкл Буономо, Робин Ф. Бекер, Скотт Буркхардт, Майк Капоцци и другие
О фильме:
Съемочная группа реалити-шоу проводит расследование о паронормальных явлениях в загадочном доме, но все становится ужасающей реальностью, когда их начинает преследовать призрак серийного убийцы.

Страна: США, Full Auto Films, Code 3 Films
Продолжительность: 01:22:08
Перевод: Любительский (двухголосый закадровый) | RecentFilms
Файл
Кодек: XviD
Качество: HDTVRip
Видео: 720x400, 23,976 fps, ~2157 Kbps, 0.30 bit/pixel
Звук:
Аудио rus: AC3, 48 kHz, 2 ch, 192 Kbps
Субтитры: отсутствуют
Реклама: присутствует
Семпл
General
Complete name : F:Films6.66PM.2017.HDTVRip.RecentFilms6.66PM.2017.HDTVRip.RecentFilms.avi
Format : AVI
Format/Info : Audio Video Interleave
File size : 1.35 GiB
Duration : 1h 22mn
Overall bit rate : 2 360 Kbps
Writing application : VirtualDubMod 1.5.10.3 (build 2550/release)
Writing library : VirtualDubMod build 2550/release
Video
ID : 0
Format : MPEG-4 Visual
Format profile : Advanced Simple@L5
Format settings, BVOP : 2
Format settings, QPel : No
Format settings, GMC : No warppoints
Format settings, Matrix : Default (H.263)
Muxing mode : Packed bitstream
Codec ID : XVID
Codec ID/Hint : XviD
Duration : 1h 22mn
Bit rate : 2 158 Kbps
Width : 720 pixels
Height : 400 pixels
Display aspect ratio : 16:9
Original display aspect ratio : 16:9
Frame rate : 25.000 fps
Color space : YUV
Chroma subsampling : 4:2:0
Bit depth : 8 bits
Scan type : Progressive
Compression mode : Lossy
Bits/(Pixel*Frame) : 0.300
Stream size : 1.24 GiB (91%)
Writing library : XviD 73
Audio
ID : 1
Format : AC-3
Format/Info : Audio Coding 3
Mode extension : CM (complete main)
Format settings, Endianness : Big
Codec ID : 2000
Duration : 1h 22mn
Bit rate mode : Constant
Bit rate : 192 Kbps
Channel(s) : 2 channels
Channel positions : Front: L R
Sampling rate : 48.0 KHz
Frame rate : 31.250 fps (1536 spf)
Compression mode : Lossy
Stream size : 113 MiB (8%)
Alignment : Split accross interleaves
Interleave, duration : 40 ms (1.00 video frame)
Interleave, preload duration : 500 ms


Релиз от: RecentFilms



   Похожие торренты   Торрент   Размер 
В этой теме нет новых непрочитанных сообщений. Подмосковные вечера [01] (2016) HDTVRip 720p от HitWay

143 | 11

3.27 ГБ

В этой теме нет новых непрочитанных сообщений. Подмосковные вечера [01] (2016) HDTVRip 720p от HitWay

114 | 12

1.11 ГБ

В этой теме нет новых непрочитанных сообщений. Вечера науки с Константином Хабенским / Evenings of science with Konstantin Khabensky [01-17 из 17] (2014) HDTVRip GeneralFilm | КПК

248 | 125

2.75 ГБ

В этой теме нет новых непрочитанных сообщений. Вечера науки с Константином Хабенским. Марс / Evenings of science with Konstantin Khabensky. Mars (2014) HDTVRip

118 | 9

572.45 МБ

В этой теме нет новых непрочитанных сообщений. Легендарные вечера: История Гатти-Уорд / Legendary Nights - The Tale of Gatti-Ward (2013) HDTVRip 720p

53 | 4

2.99 ГБ

В этой теме нет новых непрочитанных сообщений. Пистолет (с 6 до 7-30 вечера) / The Gun, from (6 to 7:30 p.m.) (2003) DVDRip

0 | 1

1.37 ГБ

В этой теме нет новых непрочитанных сообщений. Вечера / De avonden (1989) DVDRip | L1

1 | 1

1.41 ГБ




Вы не можете начинать темы
Вы не можете отвечать на сообщения
Вы не можете редактировать свои сообщения
Вы не можете удалять свои сообщения
Вы не можете добавлять вложения

Перейти:  
Для Мосгорсуда, Роскомнадзора и рекламодателей: mosgorsud-torrent[собачка]yandex.ru
 Вход
ppkBB3cker v.2 © 2008-2014 @ PPK
[ Time : 0.057s | 19 Queries | GZIP : Off ]

cron