img image001 image001 image001 image001 image001 image001 image001 image001 image001 image001 image001 image001 image001 image001 image001

Planets Sun Sun Sun
Статистика раздачи
Автор: Nickolas3434 | Размер: 1.46 ГБ | Добавлен: 21 ноя 2017
Раздают: 9    Качают: 0
Скачать торрент
Скачать торрент
Описание торрента

СообщениеДобавлено: 21 ноя 2017 

Информация о фильме
Название: Лангольеры
Оригинальное название: The Langoliers
Год выхода: 1995
Жанр: Фантастика, приключения
Режиссёр: Том Холланд / Tom Holland
В ролях: Кейт Маберли, Патриция Уэттиг, Дин Стокуэлл, Дэвид Морс, Марк Линдсэй Чэпман, Фрэнки, Фэйзон, Бакстер Харрис, Кимбер Риддл, Кристофер Колле, Бронсон Пинчо
О фильме: Десять пассажиров, проснувшись в летящем самолёте, вдруг обнаруживают, что попали в своеобразную дыру во времени. Им угрожают загадочные лангольеры, которые поначалу кажутся лишь оставшимися с детства причудами одного из пассажиров, запуганного отцом, а потом эти одушевлённые монстры появляются на самом деле. Удастся ли им вернуться назад???

Страна: США
Студия: Laurel Entertainment Inc, Spelling Films International, Worldvision
Продолжительность: 03:00:24
Перевод: Профессиональный (многоголосый, закадровый)
Файл
Формат: avi
Качество: DVDRip (DVD9)
Видео: XviD, 640х480, 25fps, 1020kbps
Аудио: MPEG Layer 3, 2ch, 48000Hz, 128kbps

Общее
Полное имя : D:донлаудторрентна заливкувезделангольерыфLangolery.1995.P.DVDRip.1400.CurHaJI.avi
Формат : AVI
Формат/Информация : Audio Video Interleave
Размер файла : 1,46 Гбайт
Продолжительность : 3 ч. 0 м.
Общий поток : 1157 Кбит/сек
Название фильма : Langolery.1995.P.DVDRip.1400.CurHaJI
Программа кодирования : VirtualDubMod 1.5.10.3 | www.virtualdub-fr.org || (build 2550/release)
Библиотека кодирования : VirtualDub build 35491/release
Видео
Идентификатор : 0
Формат : MPEG-4 Visual
Профиль формата : Advanced Simple@L5
Параметр BVOP формата : 1
Параметр QPel формата : Нет
Параметр GMC формата : Без точки перехода
Параметр матрицы формата : Выборочная
Идентификатор кодека : XVID
Идентификатор кодека/Подсказка : XviD
Продолжительность : 3 ч. 0 м.
Битрейт : 1020 Кбит/сек
Ширина : 640 пикселей
Высота : 480 пикселей
Соотношение сторон : 4:3
Частота кадров : 25,000 кадров/сек
Цветовое пространство : YUV
Субдискретизация насыщенности : 4:2:0
Битовая глубина : 8 бит
Тип развёртки : Прогрессивная
Метод сжатия : С потерями
Бит/(Пиксели*Кадры) : 0.133
Размер потока : 1,29 Гбайт (88%)
Библиотека кодирования : XviD 73
Аудио
Идентификатор : 1
Формат : MPEG Audio
Версия формата : Version 1
Профиль формата : Layer 3
Идентификатор кодека : 55
Идентификатор кодека/Подсказка : MP3
Продолжительность : 3 ч. 0 м.
Вид битрейта : Постоянный
Битрейт : 128 Кбит/сек
Каналы : 2 канала
Частота : 48,0 КГц
Метод сжатия : С потерями
Размер потока : 165 Мбайт (11%)
Выравнивание : Соединение по промежуткам
Продолжительность промежутка : 40 мс. (1,00 видеокадр)
Время предзагрузки промежутка : 504 мс.
Библиотека кодирования : LAME3.99r
Настройки программы : -m s -V 4 -q 2 -lowpass 17 -b 128


Релиз от:



   Похожие торренты   Торрент   Размер 
В этой теме нет новых непрочитанных сообщений. Лангольеры / The Langoliers (1995) DVDRip | A

140 | 8

3.41 ГБ

В этой теме нет новых непрочитанных сообщений. Лангольеры / The Langoliers (1995) DVDRip | FilmRus | A

494 | 28

2.68 ГБ

В этой теме нет новых непрочитанных сообщений. Лангольеры / The Langoliers (1995) DVDRip от Kinobomond

162 | 10

2.74 ГБ

В этой теме нет новых непрочитанных сообщений. Лангольеры / The Langoliers (1995) DVDRip-AVC от olegek70

59 | 12

4.4 ГБ

В этой теме нет новых непрочитанных сообщений. Стивен Кинг : Лангольеры. / The Langoliers. (1995) DVDRip

110 | 8

1.66 ГБ

В этой теме нет новых непрочитанных сообщений. Лангольеры / The Langoliers (1995) DVD9 от LynxSS

21 | 6

7.37 ГБ

В этой теме нет новых непрочитанных сообщений. Финал НБА 1995 Орландо Меджик - Хьюстон Рокетс / NBA Final 1995 (Orlando Magic vs Houston Rockets) 1 игра серии (1995) TVRip

6 | 6

1.38 ГБ




Вы не можете начинать темы
Вы не можете отвечать на сообщения
Вы не можете редактировать свои сообщения
Вы не можете удалять свои сообщения
Вы не можете добавлять вложения

Перейти:  
Для Мосгорсуда, Роскомнадзора и рекламодателей: mosgorsud-torrent[собачка]yandex.ru
 Вход
ppkBB3cker v.2 © 2008-2014 @ PPK
[ Time : 0.165s | 18 Queries | GZIP : Off ]

cron