img image001 image001 image001 image001 image001 image001 image001 image001 image001 image001 image001 image001 image001 image001 image001 image001

Planets Sun Sun Sun
Статистика раздачи
Автор: Nickolas3434 | Размер: 5.67 ГБ | Добавлен: 09 дек 2017
Раздают: 993    Качают: 33
Скачать торрент
Скачать торрент
Описание торрента

СообщениеДобавлено: 09 дек 2017 

Информация о фильме
Название: Дюнкерк
Оригинальное название: Dunkirk
Год выхода: 2017
Жанр: Военный, драма, история
Режиссер: Кристофер Нолан
В ролях: Финн Уайтхед, Том Глинн-Карни, Джек Лауден, Гарри Стайлс, Анейрин Барнард, Джеймс Д`Арси, Барри Кеоган, Кеннет Брана, Киллиан Мёрфи, Марк Райлэнс
О фильме:
Фильм расскажет историю чудесного спасения более трехсот тысяч солдат в ходе Дюнкеркской операции, имевшей место в начале Второй мировой войны. События начинаются с окружения сотен тысяч британских и союзных войск силами противника. Пойманные в ловушку на пляже, и находясь спиной к морю, они сталкиваются лицом к лицу с неразрешимой ситуацией, тем временем как тиски противника сжимаются все сильнее и сильнее.

Страна: Нидерланды, Великобритания, Франция, США
Студия: Canal+ [fr], Ciné, Dombey Street Productions, Kaap Holland Film
Продолжительность: 01:46:38
Перевод: Дублированный | Лицензия
Файл
Качество: BDRip 720p
Видео: MPEG-4 AVC, 1280x720, 6518 Kbit/s, 23.976 fps
Звук:
Аудио #01: 48 kHz, AC3, 5.1, 448 Kbps | Дублированный | RUS |
Аудио #02: 48 kHz, AC3, 5.1, 640 Kbps | Оригинал | ENG |
Субтитры: Русские (forced, full), английские

General
Unique ID : 181257935745392217226987463410073365083 (0x885D02345462DD7CA41D8F1846066A5B)
Complete name : G:VideoSSDDunkirk.2017.BDRip.720p.ExKinoRay.mkv
Format : Matroska
Format version : Version 4 / Version 2
File size : 5.67 GiB
Duration : 1 h 46 min
Overall bit rate : 7 608 kb/s
Movie name : Dunkirk 2017 from ExKinoRay
Encoded date : UTC 2017-12-08 08:43:05
Writing application : mkvmerge v18.0.0 ('Apricity') 64-bit
Writing library : libebml v1.3.5 + libmatroska v1.4.8
Video
ID : 1
Format : AVC
Format/Info : Advanced Video Codec
Format profile : High@L4.1
Format settings : CABAC / 9 Ref Frames
Format settings, CABAC : Yes
Format settings, RefFrames : 9 frames
Codec ID : V_MPEG4/ISO/AVC
Duration : 1 h 46 min
Bit rate : 6 518 kb/s
Width : 1 280 pixels
Height : 720 pixels
Display aspect ratio : 16:9
Frame rate mode : Constant
Frame rate : 23.976 (24000/1001) FPS
Color space : YUV
Chroma subsampling : 4:2:0
Bit depth : 8 bits
Scan type : Progressive
Bits/(Pixel*Frame) : 0.295
Stream size : 4.85 GiB (86%)
Writing library : x264 core 142 r2431+42 c69a006 tMod [8-bit@4:2:0 X86_64]
Encoding settings : cabac=1 / ref=9 / deblock=1:-3:-3 / analyse=0x3:0x113 / me=umh / subme=11 / psy=1 / fade_compensate=0.00 / psy_rd=1.00:0.05 / mixed_ref=1 / me_range=32 / chroma_me=1 / trellis=2 / 8x8dct=1 / cqm=0 / deadzone=21,11 / fast_pskip=0 / chroma_qp_offset=-2 / threads=12 / lookahead_threads=2 / sliced_threads=0 / nr=0 / decimate=1 / interlaced=0 / bluray_compat=0 / constrained_intra=0 / fgo=0 / bframes=9 / b_pyramid=2 / b_adapt=2 / b_bias=0 / direct=3 / weightb=1 / open_gop=0 / weightp=2 / keyint=250 / keyint_min=23 / scenecut=40 / intra_refresh=0 / rc_lookahead=40 / rc=crf / mbtree=0 / crf=17.0000 / qcomp=0.60 / qpmin=0:0:0 / qpmax=69:69:69 / qpstep=4 / vbv_maxrate=30000 / vbv_bufsize=30000 / crf_max=0.0 / nal_hrd=none / filler=0 / ip_ratio=1.40 / pb_ratio=1.30 / aq=3:1.00 / aq-sensitivity=10.00 / aq-factor=1.00:1.00:1.00 / aq2=0 / aq3=0
Language : English
Default : Yes
Forced : No
Color range : Limited
Matrix coefficients : BT.709
Audio #1
ID : 2
Format : AC-3
Format/Info : Audio Coding 3
Format settings, Endianness : Big
Codec ID : A_AC3
Duration : 1 h 46 min
Bit rate mode : Constant
Bit rate : 448 kb/s
Channel(s) : 6 channels
Channel positions : Front: L C R, Side: L R, LFE
Sampling rate : 48.0 kHz
Frame rate : 31.250 FPS (1536 SPF)
Bit depth : 16 bits
Compression mode : Lossy
Stream size : 342 MiB (6%)
Title : Dub [License]
Language : Russian
Service kind : Complete Main
Default : Yes
Forced : No
Audio #2
ID : 3
Format : AC-3
Format/Info : Audio Coding 3
Format settings, Endianness : Big
Codec ID : A_AC3
Duration : 1 h 46 min
Bit rate mode : Constant
Bit rate : 640 kb/s
Channel(s) : 6 channels
Channel positions : Front: L C R, Side: L R, LFE
Sampling rate : 48.0 kHz
Frame rate : 31.250 FPS (1536 SPF)
Bit depth : 16 bits
Compression mode : Lossy
Stream size : 488 MiB (8%)
Title : Original
Language : English
Service kind : Complete Main
Default : No
Forced : No
Text #1
ID : 4
Format : UTF-8
Codec ID : S_TEXT/UTF8
Codec ID/Info : UTF-8 Plain Text
Duration : 1 h 45 min
Bit rate : 1 b/s
Count of elements : 30
Stream size : 1.51 KiB (0%)
Title : Forced
Language : Russian
Default : Yes
Forced : No
Text #2
ID : 5
Format : UTF-8
Codec ID : S_TEXT/UTF8
Codec ID/Info : UTF-8 Plain Text
Duration : 1 h 46 min
Bit rate : 32 b/s
Count of elements : 643
Stream size : 25.5 KiB (0%)
Title : Full
Language : Russian
Default : No
Forced : No
Text #3
ID : 6
Format : UTF-8
Codec ID : S_TEXT/UTF8
Codec ID/Info : UTF-8 Plain Text
Duration : 1 h 37 min
Bit rate : 30 b/s
Count of elements : 859
Stream size : 21.7 KiB (0%)
Title : Full
Language : English
Default : No
Forced : No
Menu
00:00:00.000 : en:00:00:00.000
00:08:51.364 : en:00:08:51.364
00:20:13.754 : en:00:20:13.754
00:29:07.621 : en:00:29:07.621
00:42:35.261 : en:00:42:35.261
00:52:48.207 : en:00:52:48.207
01:04:32.827 : en:01:04:32.827
01:12:50.825 : en:01:12:50.825
01:25:55.025 : en:01:25:55.025
01:33:23.348 : en:01:33:23.348
01:39:13.906 : en:01:39:13.906

Релиз от: Автор релиза:
Подпишись на меня, кликни по картинке > :



   Похожие торренты   Торрент   Размер 
В этой теме нет новых непрочитанных сообщений. Дюнкерк / Dunkirk (2017) BDRip-AVC от ExKinoRay | IMAX | Лицензия

247 | 9

1.45 ГБ

В этой теме нет новых непрочитанных сообщений. Дюнкерк / Dunkirk (2017) BDRip от ExKinoRay | IMAX | Лицензия

32 | 3

1.46 ГБ

В этой теме нет новых непрочитанных сообщений. Дюнкерк / Dunkirk (2017) BDRip-AVC от ExKinoRay | IMAX | Лицензия

53 | 2

2.54 ГБ

В этой теме нет новых непрочитанных сообщений. Дюнкерк / Dunkirk (2017) BDRip от ExKinoRay | IMAX | Лицензия

159 | 4

2.18 ГБ

В этой теме нет новых непрочитанных сообщений. Дюнкерк / Dunkirk (2017) BDRip 1080p от ExKinoRay | IMAX | Лицензия

1643 | 78

11.14 ГБ

В этой теме нет новых непрочитанных сообщений. Дюнкерк / Dunkirk (2017) BDRip 720p | IMAX | Лицензия

1055 | 198

5.56 ГБ

В этой теме нет новых непрочитанных сообщений. Дюнкерк / Dunkirk (2017) BDRemux 1080p от ExKinoRay | IMAX | Лицензия

99 | 6

26.31 ГБ




Вы не можете начинать темы
Вы не можете отвечать на сообщения
Вы не можете редактировать свои сообщения
Вы не можете удалять свои сообщения
Вы не можете добавлять вложения

Перейти:  
 Вход
ppkBB3cker v.2 © 2008-2014 @ PPK
[ Time : 0.115s | 17 Queries | GZIP : Off ]

cron