img image001 image001 image001 image001 image001 image001 image001 image001 image001 image001 image001 image001 image001 image001 image001 image001

Planets Sun Sun Sun
Статистика раздачи
Автор: Nickolas3434 | Размер: 8.98 ГБ | Добавлен: 12 дек 2017
Раздают: 96    Качают: 0
Скачать торрент
Скачать торрент
Описание торрента

СообщениеДобавлено: 12 дек 2017 

Информация о фильме
Название: Техасская резня бензопилой: Кожаное лицо
Оригинальное название: Leatherface
Год выхода: 2017
Жанр: Ужасы, триллер
Режиссер: Александр Бустильо, Жюльен Мори
В ролях: Стивен Дорфф, Ванесса Грасс, Сэм Страйк, Лили Тейлор, Финн Джонс, Николь Эндрюс, Джеймс Блур, Сэм Коулман, Симона Левин, Кристофер Адамсон, Джулиан Костов, Джессика Мэдсен, Борис Кабакчиев, Йен Фишер, Велизар Пеев, Деян Ангелов, Лорина Камбурова, Нэйтан Купер
О фильме:
При побеге из лечебницы для душевнобольных, четверо подростков похищают молодую медсестру. В погоню за ними пускается отряд полицейских во главе с техасским рейнджером Хэлом Хартменом, мстительным и беспощадным. Один из беглецов встает на полный трагедий и ужасов путь, который превратит его в маньяка — легенду по имени Кожаное лицо.

Страна: США
Студия: Campbell Grobman Films, LF2 Productions, Lionsgate, Mainline Pictures Inc., Millennium Films
Продолжительность: 01:27:42
Перевод: Дублированный | iTunes
Файл
Качество: BDRip 1080p
Видео: MPEG-4 AVC, 1920x804, 12.6 Mbit/s, 23.976 fps
Звук:
Аудио #01: 48 kHz, AC3, 5.1, 384 Kbps | Дублированный | iTunes | RUS |
Аудио #02: 48 kHz, DTS, 5.1, 1510 Kbps | Оригинал | ENG |
Субтитры: Английские

General
Unique ID : 170455848366473587793444520924235443380 (0x803C9A2D7B419FC689172A200EEC2CB4)
Complete name : G:VideoSSDLeatherface.2017.BDRip.1080p.ExKinoRay.mkv
Format : Matroska
Format version : Version 4 / Version 2
File size : 8.98 GiB
Duration : 1 h 27 min
Overall bit rate : 14.7 Mb/s
Movie name : Leatherface 2017 from ExKinoRay
Encoded date : UTC 2017-12-10 12:27:40
Writing application : mkvmerge v18.0.0 ('Apricity') 64-bit
Writing library : libebml v1.3.5 + libmatroska v1.4.8
Video
ID : 1
Format : AVC
Format/Info : Advanced Video Codec
Format profile : High@L4.1
Format settings : CABAC / 4 Ref Frames
Format settings, CABAC : Yes
Format settings, RefFrames : 4 frames
Codec ID : V_MPEG4/ISO/AVC
Duration : 1 h 27 min
Bit rate : 12.8 Mb/s
Width : 1 920 pixels
Height : 804 pixels
Display aspect ratio : 2.40:1
Frame rate mode : Constant
Frame rate : 23.976 (24000/1001) FPS
Color space : YUV
Chroma subsampling : 4:2:0
Bit depth : 8 bits
Scan type : Progressive
Bits/(Pixel*Frame) : 0.345
Stream size : 7.82 GiB (87%)
Writing library : x264 core 149 r2771+45 509cceb 7mod [8-bit@all X86_64]
Encoding settings : cabac=1 / ref=4 / deblock=1:-3:-3 / analyse=0x3:0x113 / me=umh / subme=10 / psy=1 / fade_compensate=0.00 / psy_rd=0.90:0.10 / mixed_ref=1 / me_range=48 / chroma_me=1 / trellis=2 / 8x8dct=1 / cqm=0 / deadzone=21,11 / fast_pskip=0 / chroma_qp_offset=-2 / threads=12 / lookahead_threads=2 / sliced_threads=0 / nr=0 / decimate=1 / interlaced=0 / bluray_compat=0 / constrained_intra=0 / fgo=0 / bframes=8 / b_pyramid=2 / b_adapt=2 / b_bias=0 / direct=3 / weightb=1 / open_gop=0 / weightp=2 / keyint=250 / keyint_min=23 / scenecut=40 / intra_refresh=0 / rc_lookahead=40 / rc=crf / mbtree=0 / crf=20.0000 / qcomp=0.70 / qpmin=0:0:0 / qpmax=69:69:69 / qpstep=4 / vbv_maxrate=35000 / vbv_bufsize=35000 / crf_max=0.0 / nal_hrd=none / filler=0 / ip_ratio=1.40 / pb_ratio=1.30 / aq=3:1.00 / aq-sensitivity=10.00 / aq-factor=1.00:1.00:1.00 / aq2=0 / aq3=2:[0.50:0.50]:[0.50:0.50]:[0.50:0.50]:[0.50:0.50] / aq3-sensitivity=10.00 / aq3-factor=[1.00:1.00]:[1.00:1.00]:[1.00:1.00] / aq3-boundary=192:64:24
Language : English
Default : Yes
Forced : No
Color range : Limited
Matrix coefficients : BT.709
Audio #1
ID : 2
Format : AC-3
Format/Info : Audio Coding 3
Format settings, Endianness : Big
Codec ID : A_AC3
Duration : 1 h 27 min
Bit rate mode : Constant
Bit rate : 384 kb/s
Channel(s) : 6 channels
Channel positions : Front: L C R, Side: L R, LFE
Sampling rate : 48.0 kHz
Frame rate : 31.250 FPS (1536 SPF)
Bit depth : 16 bits
Compression mode : Lossy
Stream size : 241 MiB (3%)
Title : iTunes
Language : Russian
Service kind : Complete Main
Default : Yes
Forced : No
Audio #2
ID : 3
Format : DTS
Format/Info : Digital Theater Systems
Mode : 16
Format settings, Endianness : Big
Codec ID : A_DTS
Duration : 1 h 27 min
Bit rate mode : Constant
Bit rate : 1 509 kb/s
Channel(s) : 6 channels
Channel positions : Front: L C R, Side: L R, LFE
Sampling rate : 48.0 kHz
Frame rate : 93.750 FPS (512 SPF)
Bit depth : 24 bits
Compression mode : Lossy
Stream size : 947 MiB (10%)
Title : Original
Language : English
Default : No
Forced : No
Text
ID : 4
Format : UTF-8
Codec ID : S_TEXT/UTF8
Codec ID/Info : UTF-8 Plain Text
Duration : 1 h 21 min
Bit rate : 36 b/s
Count of elements : 728
Stream size : 21.5 KiB (0%)
Title : Full
Language : English
Default : No
Forced : No
Menu
00:00:00.000 : en:00:00:00.000
00:04:27.476 : en:00:04:27.476
00:09:32.238 : en:00:09:32.238
00:15:17.917 : en:00:15:17.917
00:21:39.840 : en:00:21:39.840
00:26:36.595 : en:00:26:36.595
00:31:09.493 : en:00:31:09.493
00:35:54.235 : en:00:35:54.235
00:41:50.591 : en:00:41:50.591
00:48:27.738 : en:00:48:27.738
00:53:34.753 : en:00:53:34.753
00:57:36.620 : en:00:57:36.620
01:05:27.173 : en:01:05:27.173
01:09:48.601 : en:01:09:48.601
01:14:59.078 : en:01:14:59.078
01:18:26.660 : en:01:18:26.660

Релиз от: Автор релиза:
Подпишись на меня, кликни по картинке > :



   Похожие торренты   Торрент   Размер 
В этой теме нет новых непрочитанных сообщений. Техасская резня бензопилой: Кожаное лицо / Leatherface (2017) BDRemux 1080p от ExKinoRay | iTunes

10 | 1

23.59 ГБ

В этой теме нет новых непрочитанных сообщений. Техасская резня бензопилой: Кожаное лицо / Leatherface (2017) BDRip от ExKinoRay | iTunes

61 | 2

1.42 ГБ

В этой теме нет новых непрочитанных сообщений. Техасская резня бензопилой: Кожаное лицо / Leatherface (2017) BDRip 720p от ExKinoRay | iTunes

70 | 2

4.68 ГБ

В этой теме нет новых непрочитанных сообщений. Техасская резня бензопилой: Кожаное лицо / Leatherface (2017) WEB-DLRip-AVC от ExKinoRay | iTunes

0 | 0

745.81 МБ

В этой теме нет новых непрочитанных сообщений. Техасская резня бензопилой: Кожаное лицо / Leatherface (2017) WEB-DL 1080p | iTunes

430 | 4

3.27 ГБ

В этой теме нет новых непрочитанных сообщений. Техасская резня бензопилой: Кожаное лицо / Leatherface (2017) BDRip-AVC от HELLYWOOD | iTunes

23 | 1

1.42 ГБ

В этой теме нет новых непрочитанных сообщений. Техасская резня бензопилой: Кожаное лицо / Leatherface (2017) BDRip-AVC от HELLYWOOD | iTunes

52 | 4

2.14 ГБ




Вы не можете начинать темы
Вы не можете отвечать на сообщения
Вы не можете редактировать свои сообщения
Вы не можете удалять свои сообщения
Вы не можете добавлять вложения

Перейти:  
 Вход
ppkBB3cker v.2 © 2008-2014 @ PPK
[ Time : 0.016s | 15 Queries | GZIP : Off ]

cron