img image001 image001 image001 image001 image001 image001 image001 image001 image001 image001 image001 image001 image001 image001 image001 image001

Planets Sun Sun Sun
Статистика раздачи
Автор: Nickolas3434 | Размер: 8.54 ГБ | Добавлен: 12 дек 2017
Раздают: 120    Качают: 8
Скачать торрент
Скачать торрент
Описание торрента

СообщениеДобавлено: 12 дек 2017 

Информация о фильме
Название: Тюльпанная лихорадка
Оригинальное название: Tulip Fever
Год выхода: 2017
Жанр: Драма, мелодрама
Режиссер: Джастин Чадвик
В ролях: Алисия Викандер, Дэйн ДеХаан, Кристоф Вальц, Зак Галифианакис, Джуди Денч, Холлидей Грейнджер, Джек О’Коннелл, Мэттью Моррисон, Кара Делевинь, Том Холландер
О фильме:
Голландия, 17 век. Луковицы прекрасных цветов становятся причиной баснословного богатства или унизительной нищеты. Жители Амстердама готовы ради них на все: обман, подлог… и даже убийство. В атмосфере всеобщей тюльпаномании страсть бедного художника к молодой обольстительной жене стареющего богатого торговца может завести очень далеко..

Страна: Великобритания, США
Студия: Paramount Pictures, Ruby Films, Worldview Entertainment
Продолжительность: 01:44:50
Перевод: Дублированный | Blu-ray RUS
Файл
Качество: BDRip 1080p
Формат: MKV
Кодек: MPEG-4 AVC
Видео: 1920x804 (2,40:1), 23,976 fps, MPEG-4 AVC ~ 8000 Кbps avg, 0.216 bit/pixel
Аудио: DTS, 48,0 kHz, 6 ch, ~1510.00 kbps avg | русский | Blu-ray RUS
Аудио: AC3, 48,0 kHz, 6 ch, ~640.00 kbps avg | русский | Blu-ray RUS
Аудио: AC3, 48,0 kHz, 6 ch, ~1509.00 kbps avg | английский | Оригинал
Субтитры: Английские
Общее
Уникальный идентификатор : 177826381223889606435281497451984414460 (0x85C81D810801394BA71C0A52CD6166FC)
Полное имя : Tulip.Fever.2017.1080p.BluRay.x264.Rus.Eng.mkv
Формат : Matroska
Версия формата : Version 4 / Version 2
Размер файла : 8,54 Гбайт
Продолжительность : 1 ч. 44 м.
Общий поток : 11,6 Мбит/сек
Название фильма : Тюльпанная лихорадка (2017)
Дата кодирования : UTC 2017-12-11 11:16:33
Программа кодирования : mkvmerge v9.7.1 ('Pandemonium') 64bit
Библиотека кодирования : libebml v1.3.4 + libmatroska v1.4.5
Видео
Идентификатор : 1
Формат : AVC
Формат/Информация : Advanced Video Codec
Профиль формата : High@L4.1
Параметр CABAC формата : Да
Параметр ReFrames формата : 5 кадров
Идентификатор кодека : V_MPEG4/ISO/AVC
Продолжительность : 1 ч. 44 м.
Битрейт : 8000 Кбит/сек
Ширина : 1920 пикселей
Высота : 804 пикселя
Соотношение сторон : 2,40:1
Режим частоты кадров : Постоянный
Частота кадров : 23,976 (24000/1001) кадра/сек
Цветовое пространство : YUV
Субдискретизация насыщенности : 4:2:0
Битовая глубина : 8 бит
Тип развёртки : Прогрессивная
Бит/(Пиксели*Кадры) : 0.216
Размер потока : 5,85 Гбайт (69%)
Заголовок : Tulip.Fever.2017.1080p.BluRay.x264.Rus.Eng
Библиотека кодирования : x264 core 152 r2851+58 429492e t_mod_Custom [8-bit@all X86_64]
Настройки программы : cabac=1 / ref=5 / deblock=1:-3:-3 / analyse=0x3:0x133 / me=umh / subme=10 / psy=1 / fade_compensate=0.00 / psy_rd=1.00:0.10 / mixed_ref=1 / me_range=64 / chroma_me=1 / trellis=2 / 8x8dct=1 / cqm=0 / deadzone=21,11 / fast_pskip=0 / chroma_qp_offset=-3 / threads=24 / lookahead_threads=4 / sliced_threads=0 / nr=0 / decimate=0 / interlaced=0 / bluray_compat=0 / constrained_intra=0 / fgo=0 / bframes=7 / b_pyramid=2 / b_adapt=1 / b_bias=0 / direct=3 / weightb=1 / open_gop=0 / weightp=2 / keyint=250 / keyint_min=23 / scenecut=40 / intra_refresh=0 / rc_lookahead=50 / rc=2pass / mbtree=0 / bitrate=8000 / ratetol=1.0 / qcomp=0.75 / qpmin=0:0:0 / qpmax=69:69:69 / qpstep=4 / cplxblur=20.0 / qblur=0.5 / vbv_maxrate=50000 / vbv_bufsize=62500 / nal_hrd=none / filler=0 / ip_ratio=1.30 / pb_ratio=1.20 / aq=1:0.80 / aq-sensitivity=10.00 / aq-factor=1.00:1.00:1.00 / aq2=0 / aq3=0
Default : Да
Forced : Нет
Аудио #1
Идентификатор : 2
Формат : DTS
Формат/Информация : Digital Theater Systems
Режим : 16
Параметр Endianness формата : Big
Идентификатор кодека : A_DTS
Продолжительность : 1 ч. 44 м.
Вид битрейта : Постоянный
Битрейт : 1510 Кбит/сек
Каналы : 6 каналов
Расположение каналов : Front: L C R, Side: L R, LFE
Частота : 48,0 КГц
Частота кадров : 93,750 кадра/сек (512 spf)
Битовая глубина : 24 бит
Метод сжатия : С потерями
Размер потока : 1,11 Гбайт (13%)
Заголовок : Blu-ray RUS
Язык : Russian
Default : Да
Forced : Нет
Аудио #2
Идентификатор : 3
Формат : AC-3
Формат/Информация : Audio Coding 3
Параметр Endianness формата : Big
Идентификатор кодека : A_AC3
Продолжительность : 1 ч. 44 м.
Вид битрейта : Постоянный
Битрейт : 640 Кбит/сек
Каналы : 6 каналов
Расположение каналов : Front: L C R, Side: L R, LFE
Частота : 48,0 КГц
Частота кадров : 31,250 кадров/сек (1536 spf)
Битовая глубина : 16 бит
Метод сжатия : С потерями
Размер потока : 481 Мбайт (5%)
Заголовок : Blu-ray RUS
Язык : Russian
Default : Нет
Forced : Нет
Аудио #3
Идентификатор : 4
Формат : DTS
Формат/Информация : Digital Theater Systems
Режим : 16
Параметр Endianness формата : Big
Идентификатор кодека : A_DTS
Продолжительность : 1 ч. 44 м.
Вид битрейта : Постоянный
Битрейт : 1509 Кбит/сек
Каналы : 6 каналов
Расположение каналов : Front: L C R, Side: L R, LFE
Частота : 48,0 КГц
Частота кадров : 93,750 кадра/сек (512 spf)
Битовая глубина : 24 бит
Метод сжатия : С потерями
Размер потока : 1,11 Гбайт (13%)
Язык : English
Default : Нет
Forced : Нет
Текст #1
Идентификатор : 5
Формат : UTF-8
Идентификатор кодека : S_TEXT/UTF8
Идентификатор кодека/Информация : UTF-8 Plain Text
Продолжительность : 1 ч. 43 м.
Битрейт : 47 бит/сек
ElementCount : 1382
Размер потока : 36,2 Кбайт (0%)
Язык : English
Default : Нет
Forced : Нет
Текст #2
Идентификатор : 6
Формат : UTF-8
Идентификатор кодека : S_TEXT/UTF8
Идентификатор кодека/Информация : UTF-8 Plain Text
Продолжительность : 1 ч. 44 м.
Битрейт : 57 бит/сек
ElementCount : 1688
Размер потока : 43,9 Кбайт (0%)
Заголовок : SDH
Язык : English
Default : Нет
Forced : Нет
Текст #3
Идентификатор : 7
Формат : UTF-8
Идентификатор кодека : S_TEXT/UTF8
Идентификатор кодека/Информация : UTF-8 Plain Text
Продолжительность : 1 ч. 44 м.
Битрейт : 77 бит/сек
ElementCount : 1688
Размер потока : 59,1 Кбайт (0%)
Заголовок : SDH-Colored
Язык : English
Default : Нет
Forced : Нет
Меню
00:00:00.000 : en:00:00:00.000
00:03:33.130 : en:00:03:33.130
00:08:58.204 : en:00:08:58.204
00:14:48.304 : en:00:14:48.304
00:20:30.563 : en:00:20:30.563
00:26:29.421 : en:00:26:29.421
00:33:44.648 : en:00:33:44.648
00:39:13.935 : en:00:39:13.935
00:45:54.293 : en:00:45:54.293
00:51:56.697 : en:00:51:56.697
00:58:29.339 : en:00:58:29.339
01:05:36.766 : en:01:05:36.766
01:11:57.104 : en:01:11:57.104
01:18:23.657 : en:01:18:23.657
01:23:05.480 : en:01:23:05.480
01:27:29.619 : en:01:27:29.619
01:32:55.361 : en:01:32:55.361
01:37:29.802 : en:01:37:29.802





   Похожие торренты   Торрент   Размер 
В этой теме нет новых непрочитанных сообщений. Тюльпанная лихорадка / Tulip Fever (2017) Blu-ray 1080p | Rus Transfer | Лицензия

5 | 5

23.07 ГБ

В этой теме нет новых непрочитанных сообщений. Тюльпанная лихорадка / Tulip Fever (2017) BDRip от ExKinoRay | Лицензия

42 | 3

1.46 ГБ

В этой теме нет новых непрочитанных сообщений. Тюльпанная лихорадка / Tulip Fever (2017) BDRip 720p | Лицензия

23 | 4

7.07 ГБ

В этой теме нет новых непрочитанных сообщений. Тюльпанная лихорадка / Tulip Fever (2017) BDRip 1080p | iTunes

0 | 0

7.24 ГБ

В этой теме нет новых непрочитанных сообщений. Тюльпанная лихорадка / Tulip Fever (2017) BDRip 720p от New-Team | Лицензия

126 | 13

2.84 ГБ

В этой теме нет новых непрочитанных сообщений. Тюльпанная лихорадка / Tulip Fever (2017) BDRip 720p от k.e.n & MegaPeer | Лицензия

91 | 7

4.37 ГБ

В этой теме нет новых непрочитанных сообщений. Тюльпанная лихорадка / Tulip Fever (2017) BDRip-HEVC 1080p от HEVC CLUB | Лицензия

76 | 10

2.72 ГБ




Вы не можете начинать темы
Вы не можете отвечать на сообщения
Вы не можете редактировать свои сообщения
Вы не можете удалять свои сообщения
Вы не можете добавлять вложения

Перейти:  
 Вход
ppkBB3cker v.2 © 2008-2014 @ PPK
[ Time : 0.022s | 17 Queries | GZIP : Off ]

cron