img image001 image001 image001 image001 image001 image001 image001 image001 image001 image001 image001 image001 image001 image001 image001 image001

Planets Sun Sun Sun
Статистика раздачи
Автор: Nickolas3434 | Размер: 744.08 МБ | Добавлен: 12 дек 2017
Раздают: 5    Качают: 1
Скачать торрент
Скачать торрент
Описание торрента

СообщениеДобавлено: 12 дек 2017 

Информация о фильме
Название: Добро пожаловать в рай! 2: Риф
Оригинальное название: Into the Blue 2: The Reef
Год выхода: 2009
Жанр: боевик, триллер, приключения
Режиссер: Стивен Херек
В ролях: Крис Кармак, Лаура Вандервурт, Марша Томасон, Майкл Грациадей, Мирчи Монро, Одрина Пэтридж, Аманда Киммел, Дэвид Андерс, Марк Кубр
О фильме :
За вполне приличные деньги Себастиен и Дэни соглашаются выступить в роли аквалангистов-проводников для погружения вблизи красивых и полных опасностей рифов Гавайских островов. Во время этого пара становится заложниками своих клиентов, поэтому нужно собрать в себе все силы и любовь, чтобы выжить.

Страна: США
Студия: Metro-Goldwyn-Mayer (MGM), Mandalay Pictures
Продолжительность: 01:31:43
Перевод: Профессиональный (многоголосый, закадровый) R5
Файл
Формат: MKV
Качество: WEBRip-AVC
Видео: MPEG-4 AVC, 752x424, ~ 1059 Кбит/с
Аудио: AAC-LC, 2 ch, ~ 76 Кбит/с
Субтитры: Русские, английские
Общее
Уникальный идентификатор : 179065924177491763229801862814133889249 (0x86B6D7B0A77FA520AF0BEA87995FA8E1)
Полное имя : D:MOVIESDobro.pojalovat.v.raj.2.2009.ExKinoRay.mkv
Формат : Matroska
Версия формата : Version 4 / Version 2
Размер файла : 744 Мбайт
Продолжительность : 1 ч. 31 м.
Общий поток : 1134 Кбит/сек
Дата кодирования : UTC 2017-12-11 17:44:31
Программа кодирования : mkvmerge v15.0.0 ('Duel with the Devil') 64-bit
Библиотека кодирования : libebml v1.3.5 + libmatroska v1.4.5
Видео
Идентификатор : 1
Формат : AVC
Формат/Информация : Advanced Video Codec
Профиль формата : High@L4.1
Параметр CABAC формата : Да
Параметр RefFrames формата : 10 кадров
Идентификатор кодека : V_MPEG4/ISO/AVC
Продолжительность : 1 ч. 31 м.
Битрейт : 1059 Кбит/сек
Ширина : 752 пикселя
Высота : 424 пикселя
Соотношение сторон : 16:9
Режим частоты кадров : Постоянный
Частота кадров : 23,976 (24000/1001) кадра/сек
Цветовое пространство : YUV
Субдискретизация насыщенности : 4:2:0
Битовая глубина : 8 бит
Тип развёртки : Прогрессивная
Бит/(Пиксели*Кадры) : 0.139
Размер потока : 693 Мбайт (93%)
Библиотека кодирования : x264 core 152 r2851 ba24899
Настройки программы : cabac=1 / ref=10 / deblock=1:-3:-3 / analyse=0x3:0x133 / me=umh / subme=11 / psy=1 / psy_rd=1.00:0.15 / mixed_ref=1 / me_range=32 / chroma_me=1 / trellis=2 / 8x8dct=1 / cqm=0 / deadzone=21,11 / fast_pskip=0 / chroma_qp_offset=-3 / threads=6 / lookahead_threads=1 / sliced_threads=0 / nr=0 / decimate=0 / interlaced=0 / bluray_compat=0 / constrained_intra=0 / bframes=10 / b_pyramid=2 / b_adapt=2 / b_bias=0 / direct=3 / weightb=1 / open_gop=0 / weightp=2 / keyint=240 / keyint_min=23 / scenecut=40 / intra_refresh=0 / rc_lookahead=40 / rc=2pass / mbtree=0 / bitrate=1059 / ratetol=1.0 / qcomp=0.60 / qpmin=0 / qpmax=69 / qpstep=4 / cplxblur=20.0 / qblur=0.5 / vbv_maxrate=50000 / vbv_bufsize=62500 / nal_hrd=none / filler=0 / ip_ratio=1.40 / pb_ratio=1.30 / aq=1:1.00
Default : Да
Forced : Нет
Аудио
Идентификатор : 2
Формат : AAC
Формат/Информация : Advanced Audio Codec
Профиль формата : LC
Идентификатор кодека : A_AAC
Продолжительность : 1 ч. 31 м.
Битрейт : 76,0 Кбит/сек
Каналы : 2 канала
Расположение каналов : Front: L R
Частота : 48,0 КГц
Частота кадров : 46,875 кадров/сек (1024 SPF)
Метод сжатия : С потерями
Задержка видео : 9 мс.
Размер потока : 49,9 Мбайт (7%)
Default : Да
Forced : Нет
Текст #1
Идентификатор : 3
Формат : UTF-8
Идентификатор кодека : S_TEXT/UTF8
Идентификатор кодека/Информация : UTF-8 Plain Text
Продолжительность : 1 ч. 31 м.
Битрейт : 71 бит/сек
ElementCount : 829
Размер потока : 47,8 Кбайт (0%)
Язык : Russian
Default : Нет
Forced : Нет
Текст #2
Идентификатор : 4
Формат : UTF-8
Идентификатор кодека : S_TEXT/UTF8
Идентификатор кодека/Информация : UTF-8 Plain Text
Продолжительность : 1 ч. 26 м.
Битрейт : 58 бит/сек
ElementCount : 1129
Размер потока : 36,8 Кбайт (0%)
Заголовок : SDH
Язык : English
Default : Нет
Forced : Нет


Релиз от:



   Похожие торренты   Торрент   Размер 
В этой теме нет новых непрочитанных сообщений. Добро пожаловать в рай! 2: Риф / Into the Blue 2: The Reef (2009) WEBRip 1080p | P

43 | 11

9.01 ГБ

В этой теме нет новых непрочитанных сообщений. Добро пожаловать в рай! 2: Риф / Into the Blue 2: The Reef (2009) DVDRip-AVC | P

11 | 3

2.89 ГБ

В этой теме нет новых непрочитанных сообщений. Добро пожаловать в рай! / Into the Blue (2005) HDRip-AVC от ExKinoRay | D

12 | 0

746.02 МБ

В этой теме нет новых непрочитанных сообщений. Добро пожаловать в рай! / Into the Blue (2005) BDRip-AVC от 0ptimus | D, P2, A

55 | 22

4.19 ГБ

В этой теме нет новых непрочитанных сообщений. Добро пожаловать в рай! / Into the Blue (2005) HDRip от Scarabey | D

238 | 18

1.45 ГБ

В этой теме нет новых непрочитанных сообщений. Добро пожаловать в рай! / Into the Blue (2005) BDRip от MediaClub | КПК

63 | 4

502.39 МБ

В этой теме нет новых непрочитанных сообщений. Добро пожаловать в рай! / Into the Blue (2005) BDRip 720p | D, P2, A

62 | 21

5.89 ГБ




Вы не можете начинать темы
Вы не можете отвечать на сообщения
Вы не можете редактировать свои сообщения
Вы не можете удалять свои сообщения
Вы не можете добавлять вложения

Перейти:  
 Вход
ppkBB3cker v.2 © 2008-2014 @ PPK
[ Time : 0.030s | 18 Queries | GZIP : Off ]

cron