img image001 image001 image001 image001 image001 image001 image001 image001 image001 image001 image001 image001 image001 image001 image001 image001
Planets Sun Sun Sun
Статистика раздачи
Автор: Nickolas3434 | Размер: 2.84 ГБ | Добавлен: 12 дек 2017
Раздают: 175    Качают: 15
Скачать торрент
Скачать торрент
Описание торрента

СообщениеДобавлено: 12 дек 2017 



Группа New-Team ВКонтакте
Подписывайтесь так же на мою группу ВКонтакте stalkerok | AVC рипы
Ссылка в группе New-Team
Присоединяйтесь!

Тюльпанная лихорадка
Tulip Fever


Страна: Великобритания, США
Жанр: драма, мелодрама
Год выпуска: 2017
Продолжительность: 01:44:58
Перевод: Профессиональный (полное дублирование) [Blu-ray RUS]
Субтитры: русские (полные), английские (полные, SDH, SDH цветные)
Оригинальная аудиодорожка: английский
Режиссер: Джастин Чадвик / Justin Chadwick
В ролях: Алисия Викандер, Дэйн ДеХаан, Кристоф Вальц, Зак Галифианакис, Джуди Денч, Холлидей Грейнджер, Джек О’Коннелл, Мэттью Моррисон, Кара Делевинь, Том Холландер, Кевин МакКидд, Дуглас Ходж
Описание:
Голландия, 17 век. Луковицы прекрасных цветов становятся причиной баснословного богатства или унизительной нищеты. Жители Амстердама готовы ради них на все: обман, подлог... и даже убийство. В атмосфере всеобщей тюльпаномании страсть бедного художника к молодой обольстительной жене стареющего богатого торговца может завести очень далеко.

Релиз:
Автор рипа: stalkerok
Сэмпл
Качество видео: BDRip 720p [Tulip.Fever.2017.1080p.BluRay.REMUX.AVC.DTS-HD.MA.5.1-FGT]
Формат видео: MKV
Видео кодек: AVC
Аудио кодек: AC3
Видео: 2973 Кбит/сек, 1280*536 (2,40:1), в 23,976 (24000/1001) кадра/сек, AVC
Аудио #1: русский, 448 Кбит/сек, 48 КГц, 5.1, AC3
Аудио #2: английский, 448 Кбит/сек, 48 КГц, 5.1, AC3
Навигация по главам: есть

---[Information] [01.12.2017 18:07:17] x264 [info]: frame I:1178 Avg QP:11.55 size: 76661
---[Information] [01.12.2017 18:07:17] x264 [info]: frame P:32738 Avg QP:13.47 size: 31955
---[Information] [01.12.2017 18:07:17] x264 [info]: frame B:116900 Avg QP:15.39 size: 10272
Общее
Уникальный идентификатор : 227869237826033812976138722479428052918 (0xAB6E04D393523197A167190E0E6BA7B6)
Полное имя : M:$newTulip Fever (2017)NEWTulip.Fever.2017.BDRip.720p.RUS.ENG.stalkerok.new-team.mkv
Формат : Matroska
Версия формата : Version 4 / Version 2
Размер файла : 2,84 Гбайт
Продолжительность : 1 ч. 44 м.
Общий поток : 3867 Кбит/сек
Название фильма : Tulip Fever (2017) (Rip by stalkerok)
Дата кодирования : UTC 2017-12-11 17:06:58
Программа кодирования : mkvmerge v8.6.1 ('Flying') 64bit
Библиотека кодирования : libebml v1.3.3 + libmatroska v1.4.4
Видео
Идентификатор : 7
Формат : AVC
Формат/Информация : Advanced Video Codec
Профиль формата : High@L4.1
Параметр CABAC формата : Да
Параметр ReFrames формата : 12 кадров
Идентификатор кодека : V_MPEG4/ISO/AVC
Продолжительность : 1 ч. 44 м.
Битрейт : 2973 Кбит/сек
Ширина : 1280 пикселей
Высота : 536 пикселей
Соотношение сторон : 2,40:1
Режим частоты кадров : Постоянный
Частота кадров : 23,976 (24000/1001) кадра/сек
Цветовое пространство : YUV
Субдискретизация насыщенности : 4:2:0
Битовая глубина : 8 бит
Тип развёртки : Прогрессивная
Бит/(Пиксели*Кадры) : 0.181
Размер потока : 2,18 Гбайт (77%)
Заголовок : Tulip Fever (2017) (Rip by stalkerok)
Библиотека кодирования : x264 core 152 r2851kMod ba24899
Настройки программы : cabac=1 / ref=12 / deblock=1:-3:-2 / analyse=0x3:0x133 / me=umh / subme=11 / psy=1 / fade_compensate=0.00 / psy_rd=1.00:0.00 / mixed_ref=1 / me_range=32 / chroma_me=1 / trellis=2 / 8x8dct=1 / cqm=0 / deadzone=21,11 / fast_pskip=0 / chroma_qp_offset=-2 / threads=12 / lookahead_threads=3 / sliced_threads=0 / nr=0 / decimate=1 / interlaced=0 / bluray_compat=0 / constrained_intra=0 / bframes=13 / b_pyramid=2 / b_adapt=2 / b_bias=0 / direct=3 / weightb=1 / open_gop=0 / weightp=2 / keyint=240 / keyint_min=23 / scenecut=40 / intra_refresh=0 / rc_lookahead=60 / rc=crf / mbtree=0 / crf=16.1000 / qcomp=0.65 / qpmin=0 / qpmax=69 / qpstep=4 / vbv_maxrate=50000 / vbv_bufsize=62500 / crf_max=0.0 / nal_hrd=none / filler=0 / ip_ratio=1.40 / pb_ratio=1.30 / aq=3:0.80 / zones=140293,150815,q=30
Default : Да
Forced : Нет
Аудио #1
Идентификатор : 1
Формат : AC-3
Формат/Информация : Audio Coding 3
Расширение режима : CM (complete main)
Параметр Endianness формата : Big
Идентификатор кодека : A_AC3
Продолжительность : 1 ч. 44 м.
Вид битрейта : Постоянный
Битрейт : 448 Кбит/сек
Каналы : 6 каналов
Расположение каналов : Front: L C R, Side: L R, LFE
Частота : 48,0 КГц
Частота кадров : 31,250 кадров/сек (1536 spf)
Метод сжатия : С потерями
Размер потока : 336 Мбайт (12%)
Язык : Russian
Default : Да
Forced : Нет
Аудио #2
Идентификатор : 2
Формат : AC-3
Формат/Информация : Audio Coding 3
Расширение режима : CM (complete main)
Параметр Endianness формата : Big
Идентификатор кодека : A_AC3
Продолжительность : 1 ч. 44 м.
Вид битрейта : Постоянный
Битрейт : 448 Кбит/сек
Каналы : 6 каналов
Расположение каналов : Front: L C R, Side: L R, LFE
Частота : 48,0 КГц
Частота кадров : 31,250 кадров/сек (1536 spf)
Метод сжатия : С потерями
Размер потока : 336 Мбайт (12%)
Язык : English
Default : Нет
Forced : Нет
Текст #1
Идентификатор : 3
Формат : UTF-8
Идентификатор кодека : S_TEXT/UTF8
Идентификатор кодека/Информация : UTF-8 Plain Text
Продолжительность : 1 ч. 36 м.
Битрейт : 74 бит/сек
Count of elements : 1126
Размер потока : 52,6 Кбайт (0%)
Язык : Russian
Default : Нет
Forced : Нет
Текст #2
Идентификатор : 4
Формат : UTF-8
Идентификатор кодека : S_TEXT/UTF8
Идентификатор кодека/Информация : UTF-8 Plain Text
Продолжительность : 1 ч. 36 м.
Битрейт : 50 бит/сек
Count of elements : 1345
Размер потока : 36,0 Кбайт (0%)
Язык : English
Default : Нет
Forced : Нет
Текст #3
Идентификатор : 5
Формат : UTF-8
Идентификатор кодека : S_TEXT/UTF8
Идентификатор кодека/Информация : UTF-8 Plain Text
Продолжительность : 1 ч. 44 м.
Битрейт : 57 бит/сек
Count of elements : 1675
Размер потока : 43,8 Кбайт (0%)
Заголовок : SDH
Язык : English
Default : Нет
Forced : Нет
Текст #4
Идентификатор : 6
Формат : UTF-8
Идентификатор кодека : S_TEXT/UTF8
Идентификатор кодека/Информация : UTF-8 Plain Text
Продолжительность : 1 ч. 44 м.
Битрейт : 112 бит/сек
Count of elements : 1676
Размер потока : 86,5 Кбайт (0%)
Заголовок : SDH Colored
Язык : English
Default : Нет
Forced : Нет
Меню
00:00:00.000 : en:Chapter 00
00:00:05.005 : en:Chapter 01
00:03:38.009 : en:Chapter 02
00:09:02.875 : en:Chapter 03
00:14:53.142 : en:Chapter 04
00:20:35.651 : en:Chapter 05
00:26:34.092 : en:Chapter 06
00:33:49.694 : en:Chapter 07
00:39:18.856 : en:Chapter 08
00:45:59.381 : en:Chapter 09
00:52:01.326 : en:Chapter 10
00:58:34.135 : en:Chapter 11
01:05:41.479 : en:Chapter 12
01:12:02.109 : en:Chapter 13
01:18:28.495 : en:Chapter 14
01:23:10.318 : en:Chapter 15
01:27:34.624 : en:Chapter 16
01:33:00.366 : en:Chapter 17
01:37:34.557 : en:Chapter 18





   Похожие торренты   Торрент   Размер 
В этой теме нет новых непрочитанных сообщений. Тюльпанная лихорадка / Tulip Fever (2017) BDRip 720p | Лицензия

23 | 4

7.07 ГБ

В этой теме нет новых непрочитанных сообщений. Тюльпанная лихорадка / Tulip Fever (2017) BDRip 720p от k.e.n & MegaPeer | Лицензия

90 | 6

4.37 ГБ

В этой теме нет новых непрочитанных сообщений. Тюльпанная лихорадка / Tulip Fever (2017) BDRip-AVC от New-Team | iTunes

142 | 8

1.28 ГБ

В этой теме нет новых непрочитанных сообщений. Тюльпанная лихорадка / Tulip Fever (2017) BDRip-AVC от New-Team | iTunes

284 | 15

2.07 ГБ

В этой теме нет новых непрочитанных сообщений. Тюльпанная лихорадка / Tulip Fever (2017) BDRip 1080p | Лицензия

120 | 8

8.54 ГБ

В этой теме нет новых непрочитанных сообщений. Тюльпанная лихорадка / Tulip Fever (2017) BDRip от ExKinoRay | Лицензия

57 | 3

1.46 ГБ

В этой теме нет новых непрочитанных сообщений. Тюльпанная лихорадка / Tulip Fever (2017) BDRip 720p | iTunes

0 | 0

5.14 ГБ




Вы не можете начинать темы
Вы не можете отвечать на сообщения
Вы не можете редактировать свои сообщения
Вы не можете удалять свои сообщения
Вы не можете добавлять вложения

Перейти:  
 Вход
ppkBB3cker v.2 © 2008-2014 @ PPK
[ Time : 0.048s | 19 Queries | GZIP : Off ]

cron