img image001 image001 image001 image001 image001 image001 image001 image001 image001 image001 image001 image001 image001 image001 image001

Planets Sun Sun Sun
Статистика раздачи
Автор: Nickolas3434 | Размер: 11.85 ГБ | Добавлен: 12 дек 2017
Раздают: 50    Качают: 5
Скачать торрент
Скачать торрент
Описание торрента

СообщениеДобавлено: 12 дек 2017 

Информация о фильме
Название: Безумные соседи
Оригинальное название: À bras ouverts
Год выхода: 2017
Жанр: Комедия
Режиссер: Филипп де Шоврон
В ролях: Кристиан Клавье, Эри Абиттан, Эльза Зильберштейн, Сириль Леконт, Нану Гарсия, Оскар Берт, Мирела Николау, София Мануша, Иоана Висалон, Никита Драгомир
О фильме:
В запале предвыборных дебатов рафинированный буржуа Жан-Этьен Фужероль неосторожно бросает с экрана телевизора, что его любимая Франция открыта для любых иммигрантов, они повсюду найдут себе кров и еду, даже в его доме. Не проходит и суток, как у его ворот появляется цыганский табор во главе с наглецом Бабиком. Не пустить — потерять голоса избирателей. Размеренной семейной жизни приходит конец: нежданные гости плавают в крытом бассейне, устраивают концерты во дворе, обживают хозяйский туалет, пьют коллекционные вина и даже пытаются приударить за женой Жан-Этьена.

Страна: Франция, Бельгия
Студия: Camera One, Ouille Productions, Pulsar Productions, SND, Canal+ [fr], Ciné, Investisseurs Tax Shelter, La Wallonie, Le Tax Shelter du Gouvernement Fédéral de Belgique, M6 Films, Nexus Factory, uFund, uMedia Family, W9
Продолжительность: 01:32:13
Перевод: Дублированный | iTunes
Файл
Качество: BDRip 1080p
Видео: MPEG-4 AVC, 1920x1036, 16.5 Mbit/s, 24.000 fps
Звук:
Аудио #01: 48 kHz, AC3, 5.1, 384 Kbps | Дублированный | iTunes | RUS |
Аудио #02: 48 kHz, DTS, 5.1, 1510 Kbps | Оригинал | FRE |
Субтитры: Французские

General
Unique ID : 220417588296818759944555987881518191646 (0xA5D2E223AFF79B19ADAEB8F65070541E)
Complete name : G:VideoSSDA.Bras.Ouverts.2017.BDRip.1080p.ExKinoRay.mkv
Format : Matroska
Format version : Version 4 / Version 2
File size : 11.8 GiB
Duration : 1 h 32 min
Overall bit rate : 18.4 Mb/s
Movie name : A Bras Ouverts 2017 from ExKinoRay
Encoded date : UTC 2017-12-05 21:46:39
Writing application : mkvmerge v18.0.0 ('Apricity') 64-bit
Writing library : libebml v1.3.5 + libmatroska v1.4.8
Video
ID : 1
Format : AVC
Format/Info : Advanced Video Codec
Format profile : High@L4.1
Format settings : CABAC / 4 Ref Frames
Format settings, CABAC : Yes
Format settings, RefFrames : 4 frames
Codec ID : V_MPEG4/ISO/AVC
Duration : 1 h 32 min
Bit rate : 16.5 Mb/s
Width : 1 920 pixels
Height : 1 036 pixels
Display aspect ratio : 1.85:1
Frame rate mode : Constant
Frame rate : 24.000 FPS
Color space : YUV
Chroma subsampling : 4:2:0
Bit depth : 8 bits
Scan type : Progressive
Bits/(Pixel*Frame) : 0.346
Stream size : 10.6 GiB (90%)
Writing library : x264 core 148 r2705 3f5ed56
Encoding settings : cabac=1 / ref=4 / deblock=1:-2:-2 / analyse=0x3:0x133 / me=umh / subme=11 / psy=1 / psy_rd=1.05:0.05 / mixed_ref=1 / me_range=32 / chroma_me=1 / trellis=2 / 8x8dct=1 / cqm=0 / deadzone=21,11 / fast_pskip=0 / chroma_qp_offset=-3 / threads=24 / lookahead_threads=4 / sliced_threads=0 / nr=0 / decimate=0 / interlaced=0 / bluray_compat=0 / constrained_intra=0 / bframes=8 / b_pyramid=2 / b_adapt=2 / b_bias=0 / direct=3 / weightb=1 / open_gop=0 / weightp=2 / keyint=240 / keyint_min=24 / scenecut=40 / intra_refresh=0 / rc_lookahead=50 / rc=2pass / mbtree=0 / bitrate=16500 / ratetol=1.0 / qcomp=0.60 / qpmin=0 / qpmax=69 / qpstep=4 / cplxblur=20.0 / qblur=0.5 / vbv_maxrate=50000 / vbv_bufsize=62500 / nal_hrd=none / filler=0 / ip_ratio=1.40 / pb_ratio=1.30 / aq=3:0.80
Language : English
Default : Yes
Forced : No
Audio #1
ID : 2
Format : AC-3
Format/Info : Audio Coding 3
Format settings, Endianness : Big
Codec ID : A_AC3
Duration : 1 h 32 min
Bit rate mode : Constant
Bit rate : 384 kb/s
Channel(s) : 6 channels
Channel positions : Front: L C R, Side: L R, LFE
Sampling rate : 48.0 kHz
Frame rate : 31.250 FPS (1536 SPF)
Bit depth : 16 bits
Compression mode : Lossy
Stream size : 253 MiB (2%)
Title : iTunes
Language : Russian
Service kind : Complete Main
Default : Yes
Forced : No
Audio #2
ID : 3
Format : DTS
Format/Info : Digital Theater Systems
Mode : 16
Format settings, Endianness : Big
Codec ID : A_DTS
Duration : 1 h 32 min
Bit rate mode : Constant
Bit rate : 1 509 kb/s
Channel(s) : 6 channels
Channel positions : Front: L C R, Side: L R, LFE
Sampling rate : 48.0 kHz
Frame rate : 93.750 FPS (512 SPF)
Bit depth : 24 bits
Compression mode : Lossy
Stream size : 995 MiB (8%)
Title : Original
Language : French
Default : No
Forced : No
Text
ID : 4
Format : UTF-8
Codec ID : S_TEXT/UTF8
Codec ID/Info : UTF-8 Plain Text
Duration : 1 h 24 min
Bit rate : 2 b/s
Count of elements : 66
Stream size : 1.64 KiB (0%)
Title : Full
Language : French
Default : No
Forced : No
Menu
00:00:00.000 : fr:Chapitre 01
00:07:40.500 : fr:Chapitre 02
00:13:22.375 : fr:Chapitre 03
00:21:33.625 : fr:Chapitre 04
00:27:51.875 : fr:Chapitre 05
00:35:08.083 : fr:Chapitre 06
00:42:06.458 : fr:Chapitre 07
00:51:13.458 : fr:Chapitre 08
00:57:47.416 : fr:Chapitre 09
01:03:44.541 : fr:Chapitre 10
01:13:09.333 : fr:Chapitre 11
01:24:02.750 : fr:Chapitre 12

Релиз от: Автор релиза:
Подпишись на меня, кликни по картинке > :



   Похожие торренты   Торрент   Размер 
В этой теме нет новых непрочитанных сообщений. Безумные соседи / À bras ouverts (2017) BDRip от ExKinoRay | iTunes

77 | 3

1.42 ГБ

В этой теме нет новых непрочитанных сообщений. Безумные соседи / À bras ouverts (2017) BDRip-AVC от ExKinoRay | iTunes

17 | 2

746.85 МБ

В этой теме нет новых непрочитанных сообщений. Безумные соседи / À bras ouverts (2017) BDRip-AVC от HELLYWOOD | iTunes

105 | 4

2.14 ГБ

В этой теме нет новых непрочитанных сообщений. Безумные соседи / À bras ouverts (2017) BDRip-AVC от HELLYWOOD | iTunes

94 | 7

1.42 ГБ

В этой теме нет новых непрочитанных сообщений. Безумные соседи / À bras ouverts (2017) HDRip от Kaztorrents | КПК | iTunes

12 | 0

350.79 МБ

В этой теме нет новых непрочитанных сообщений. Безумные соседи / À bras ouverts (2017) HDRip от MegaPeer | iTunes

71 | 0

746.35 МБ

В этой теме нет новых непрочитанных сообщений. Безумные соседи / À bras ouverts (2017) HDRip от Generalfilm | КПК | iTunes

2 | 1

349.57 МБ




Вы не можете начинать темы
Вы не можете отвечать на сообщения
Вы не можете редактировать свои сообщения
Вы не можете удалять свои сообщения
Вы не можете добавлять вложения

Перейти:  
 Вход
ppkBB3cker v.2 © 2008-2014 @ PPK
[ Time : 0.049s | 20 Queries | GZIP : Off ]

cron