img image001 image001 image001 image001 image001 image001 image001 image001 image001 image001 image001 image001 image001 image001 image001 image001

Planets Sun Sun Sun
Статистика раздачи
Автор: Nickolas3434 | Размер: 3.45 ГБ | Добавлен: 12 дек 2017
Раздают: 51    Качают: 0
Скачать торрент
Скачать торрент
Описание торрента

СообщениеДобавлено: 12 дек 2017 

Информация о фильме
Наименование: Ламмбок 2
Оригинальное наименование: Lommbock
Произведено: Германия
Категория: комедия
Режиссер постановщик: Кристиан Цюберт
В главных ролях: Мориц Бляйбтрой, Лукас Грегорович, Луис Хофманн, Александра Нелдель, Мелани Винигер, Мави Хёрбигер, Вотан Вильке Мёринг, Антуан Моно мл.
О фильме: Сиквел фильма «Ламмбок – всё ручной работы». Прошло 15 лет. Один из героев первой части Штефан сделал карьеру юриста и собирается жениться на бизнесвумен в Дубае. Для этого ему нужен сертификат о рождении, который надо забрать в Германии. Однако короткая поездка на родину затягивается после того, как Штефан встречает своего старого приятеля Кая. Тот теперь занялся похожим сервисом по доставке в Азии. Выкурив вместе косяк, два старых товарища снова берутся за дело.

Файл
Качество: BDRip 720p
Видео данные: MKV, 1280x536 (2:40:1), 24.000 fps, 4000 Кбит/с
Аудио данные: AC3, 2 ch, 640 Кбит/с
Перевод: Любительский многоголосый (GreenРай Studio)
Продолжительность: 01:46:35
Над релизом работали:
Состав дикторов: Ильдор Ахмеджанов и Нана Саркисян, Татьяна Трусевич
Руководитель проекта и координатор: Евгений Овчаренко
Организатор и координатор: Никита Марков
Пиар менеджер студии: Игорь Обухов
Техническая поддержка: Александр Методий
Над переводом работала: Любовь Геннадиевна
General
Unique ID : 226558128451829670869691304427919435247 (0xAA718224BB23FEA2BCE65745DBFEE5EF)
Complete name : D:ЛоммбокLommbock.2017.P.BDRip.720p.mkv
Format : Matroska
Format version : Version 4 / Version 2
File size : 3.45 GiB
Duration : 1 h 46 min
Overall bit rate mode : Constant
Overall bit rate : 4 621 kb/s
Encoded date : UTC 2017-12-08 09:49:37
Writing application : mkvmerge v8.3.0 ('Over the Horizon') 64bit
Writing library : libebml v1.3.1 + libmatroska v1.4.2
Video
ID : 1
Format : AVC
Format/Info : Advanced Video Codec
Format profile : Main@L3.1
Format settings, CABAC : Yes
Format settings, ReFrames : 3 frames
Format settings, GOP : M=4, N=15
Codec ID : V_MPEG4/ISO/AVC
Duration : 1 h 46 min
Bit rate mode : Constant
Bit rate : 4 000 kb/s
Width : 1 280 pixels
Height : 536 pixels
Display aspect ratio : 2.40:1
Frame rate mode : Constant
Frame rate : 24.000 FPS
Standard : NTSC
Color space : YUV
Chroma subsampling : 4:2:0
Bit depth : 8 bits
Scan type : Progressive
Bits/(Pixel*Frame) : 0.243
Stream size : 2.97 GiB (86%)
Language : English
Default : Yes
Forced : No
Color range : Limited
Audio
ID : 2
Format : AC-3
Format/Info : Audio Coding 3
Mode extension : CM (complete main)
Format settings, Endianness : Big
Codec ID : A_AC3
Duration : 1 h 46 min
Bit rate mode : Constant
Bit rate : 640 kb/s
Channel(s) : 2 channels
Channel positions : Front: L R
Sampling rate : 48.0 kHz
Frame rate : 31.250 FPS (1536 spf)
Compression mode : Lossy
Stream size : 489 MiB (14%)
Default : Yes
Forced : No

ВНИМАНИЕ! Присутствует реклама!

Релиз от:



   Похожие торренты   Торрент   Размер 
В этой теме нет новых непрочитанных сообщений. Ламмбок 2 / Lommbock (2017) HDRip | L

50 | 1

1.37 ГБ

В этой теме нет новых непрочитанных сообщений. V.I.P. / V.I.P. (2017) BDRip 720p | L

17 | 4

4.1 ГБ

В этой теме нет новых непрочитанных сообщений. Оно / It (2017) BDRip 720p | L

3 | 4

6.07 ГБ

В этой теме нет новых непрочитанных сообщений. Лу / LOU (2017) BDRip 720p

50 | 0

366.83 МБ

В этой теме нет новых непрочитанных сообщений. Снукер. Players Championship 2017. Лландидно (Уэльс). День четвертый [09.03] (2017) WEBRip 720p, HDTVRip 720p

18 | 7

5.76 ГБ

В этой теме нет новых непрочитанных сообщений. Снукер. China Open 2017. Пекин (Китай). День четвертый [30.03] (2017) WEBRip 720p, HDTVRip 720p

3 | 4

12.46 ГБ

В этой теме нет новых непрочитанных сообщений. Снукер. Players Championship 2017. Лландидно (Уэльс). День пятый [10.03] (2017) WEBRip 720p, HDTVRip 720p

3 | 0

5.2 ГБ




Вы не можете начинать темы
Вы не можете отвечать на сообщения
Вы не можете редактировать свои сообщения
Вы не можете удалять свои сообщения
Вы не можете добавлять вложения

Перейти:  
 Вход
ppkBB3cker v.2 © 2008-2014 @ PPK
[ Time : 0.569s | 18 Queries | GZIP : Off ]

cron