img image001 image001 image001 image001 image001 image001 image001 image001 image001 image001 image001 image001 image001 image001 image001 image001

Planets Sun Sun Sun
Статистика раздачи
Автор: Nickolas3434 | Размер: 5.09 ГБ | Добавлен: 15 дек 2017
Раздают: 128    Качают: 5
Скачать торрент
Скачать торрент
Описание торрента

СообщениеДобавлено: 15 дек 2017 

Информация о фильме
Название: Убийство священного оленя
Оригинальное название: The Killing of a Sacred Deer
Год выхода: 2017
Жанр: Ужасы, триллер, драма, детектив,
Режиссер: Йоргос Лантимос
В ролях: Николь Кидман, Колин Фаррелл, Алисия Сильверстоун, Рэффи Кэссиди, Барри Кеоган, Билл Кэмп, Санни Сулджик, Дэнис Барон, Джозефина Элле, Лия Хаттон Бэсмур
О фильме:
Талантливый кардиохирург Стивен живет счастливой жизнью с женой Анной и двумя прелестными детьми. Этой семейной идиллии угрожает призрак из прошлого, которое Стивену больше не под силу скрывать.

Страна: Великобритания, Ирландия, США
Студия: Element Pictures, A24, Film4
Продолжительность: 02:01:03
Перевод: Любительский, одноголосый ~ BadBajo
Файл
Кодек: MPEG-4 AVC
Качество: WEB-DL 1080p
Видео: 1920x1032, 5251kb/s,23.976fps
Звук:
1] 384kb/s, 6ch, 48000kHz, AC3 [RUS]
2] 384kb/s, 6ch, 48000kHz, AC3 [ENG]
Субтитры: Английские
РЕКЛАМА ОТСУТСТВУЕТ
Версия формата : Version 4 / Version 2
Размер файла : 5,09 Гбайт
Продолжительность : 2 ч. 1 м.
Общий поток : 6021 Кбит/сек
Название фильма : The Killing of a Sacred Deer.2017.1080p.WEB-DL.H264.AC3_rus_BadBajo
Дата кодирования : UTC 2017-12-13 03:36:58
Программа кодирования : mkvmerge v13.0.0 ('The Juggler') 64bit
Библиотека кодирования : libebml v1.3.4 + libmatroska v1.4.5
Обложка : Yes
Attachments : cover.jpg
Видео
Идентификатор : 1
Формат : AVC
Формат/Информация : Advanced Video Codec
Профиль формата : High@L4
Настройки формата : CABAC / 4 Ref Frames
Параметр CABAC формата : Да
Параметр RefFrames формата : 4 кадра
Идентификатор кодека : V_MPEG4/ISO/AVC
Продолжительность : 2 ч. 1 м.
Битрейт : 5251 Кбит/сек
Ширина : 1920 пикселей
Высота : 1032 пикселя
Соотношение сторон : 1,85:1
Режим частоты кадров : Постоянный
Частота кадров : 23,976 кадра/сек
Цветовое пространство : YUV
Субдискретизация насыщенности : 4:2:0
Битовая глубина : 8 бит
Тип развёртки : Прогрессивная
Бит/(Пиксели*Кадры) : 0.111
Размер потока : 4,44 Гбайт (87%)
Заголовок : The Killing of a Sacred Deer
Язык : English
Default : Да
Forced : Нет
Цветовой диапазон : Limited
Основные цвета : BT.709
Характеристики трансфера : BT.709
Коэффициенты матрицы : BT.709
Аудио #1
Идентификатор : 2
Формат : AC-3
Формат/Информация : Audio Coding 3
Параметр Endianness формата : Big
Идентификатор кодека : A_AC3
Продолжительность : 2 ч. 1 м.
Вид битрейта : Постоянный
Битрейт : 384 Кбит/сек
Каналы : 6 каналов
Расположение каналов : Front: L C R, Side: L R, LFE
Частота : 48,0 КГц
Частота кадров : 31,250 кадров/сек (1536 SPF)
Битовая глубина : 16 бит
Метод сжатия : С потерями
Размер потока : 332 Мбайт (6%)
Заголовок : The Killing of a Sacred Deer.AC3_rus_BadBajo
Язык : Russian
Default : Нет
Forced : Да
Аудио #2
Идентификатор : 3
Формат : AC-3
Формат/Информация : Audio Coding 3
Параметр Endianness формата : Big
Идентификатор кодека : A_AC3
Продолжительность : 2 ч. 1 м.
Вид битрейта : Постоянный
Битрейт : 384 Кбит/сек
Каналы : 6 каналов
Расположение каналов : Front: L C R, Side: L R, LFE
Частота : 48,0 КГц
Частота кадров : 31,250 кадров/сек (1536 SPF)
Битовая глубина : 16 бит
Метод сжатия : С потерями
Размер потока : 332 Мбайт (6%)
Заголовок : The Killing of a Sacred Deer
Язык : English
Default : Да
Forced : Нет
Текст
Идентификатор : 4
Формат : UTF-8
Идентификатор кодека : S_TEXT/UTF8
Идентификатор кодека/Информация : UTF-8 Plain Text
Продолжительность : 1 ч. 56 м.
Битрейт : 61 бит/сек
ElementCount : 1730
Размер потока : 52,6 Кбайт (0%)
Язык : English
Default : Нет
Forced : Нет
Меню
00:00:00.000 : en:1
00:05:46.000 : en:2
00:11:10.000 : en:3
00:18:35.000 : en:4
00:24:02.000 : en:5
00:31:27.000 : en:6
00:35:46.000 : en:7
00:41:19.000 : en:8
00:49:06.000 : en:9
00:56:08.000 : en:10
01:00:36.000 : en:11
01:06:56.000 : en:12
01:12:53.000 : en:13
01:19:44.000 : en:14
01:25:17.000 : en:15
01:32:08.000 : en:16
01:37:07.000 : en:17
01:45:39.000 : en:18
01:50:44.000 : en:19
01:56:55.000 : en:20



   Похожие торренты   Торрент   Размер 
В этой теме нет новых непрочитанных сообщений. Убийство священного оленя / The Killing of a Sacred Deer (2017) WEB-DL 1080p | L

70 | 6

4.41 ГБ

В этой теме нет новых непрочитанных сообщений. Убийство священного оленя / The Killing of a Sacred Deer (2017) WEB-DLRip 1080p | L

111 | 5

4.29 ГБ

В этой теме нет новых непрочитанных сообщений. Убийство священного оленя / The Killing of a Sacred Deer (2017) WEB-DLRip | L

122 | 7

1.37 ГБ

В этой теме нет новых непрочитанных сообщений. Убийство священного оленя / The Killing of a Sacred Deer (2017) WEB-DLRip | L

2 | 0

1.37 ГБ

В этой теме нет новых непрочитанных сообщений. Убийство священного оленя / The Killing of a Sacred Deer (2017) WEB-DLRip | L

97 | 3

2.05 ГБ

В этой теме нет новых непрочитанных сообщений. Убийство священного оленя / The Killing of a Sacred Deer (2017) WEB-DLRip-AVC | L1

39 | 4

1 ГБ

В этой теме нет новых непрочитанных сообщений. Убийство священного оленя / The Killing of a Sacred Deer (2017) WEB-DL 720p | L

111 | 4

3.1 ГБ




Вы не можете начинать темы
Вы не можете отвечать на сообщения
Вы не можете редактировать свои сообщения
Вы не можете удалять свои сообщения
Вы не можете добавлять вложения

Перейти:  
 Вход
ppkBB3cker v.2 © 2008-2014 @ PPK
[ Time : 0.043s | 18 Queries | GZIP : Off ]

cron