img image001 image001 image001 image001 image001 image001 image001 image001 image001 image001 image001 image001 image001 image001 image001

Planets Sun Sun Sun
Статистика раздачи
Автор: Nickolas3434 | Размер: 745.74 МБ | Добавлен: 15 дек 2017
Раздают: 40    Качают: 0
Скачать торрент
Скачать торрент
Описание торрента

СообщениеДобавлено: 15 дек 2017 

Информация о фильме:
Название: Кровавый Санта / Дед Отмороз
Оригинальное название: Sint / Saint
Год выхода: 2010
Жанр: ужасы
Режиссер: Дик Мас
В ролях: Эгберт Ян Вебер, Берт Луппес, Каро Ленссен, Хуб Стапель, Эша Танихату, Джим Деддес, Джои ван дер Вельден, Йап Спийкерс, Бен Рамакерс, Кес Бот
О фильме :
Давным давно существует легенда о святом Николасе, защитнике и покровителе детей. Однако мало кто знает, что корни этой легенды скрыты в глубоком прошлом, в котором мир был не столь безоблачен. А Николас на самом деле не доброе божество, а настоящий маньяк, который в ночь на пятое декабря совершает ритуальные убийства. Под блеклым светом луны, это чудовище каждый год устраивает кровавую охоту на простых детей, и не повезет тому, кого он выбрал в жертву, спастись от маньяка практически не возможно. Однако всегда найдутся смельчаки готовые бросить вызов даже самому страшному злу на земле, конечно не факт, что они смогут победить...

Выпущено: Нидерланды / Parachute Pictures, TDMP
Продолжительность: 01:27:54
Перевод: Профессиональный (полное дублирование)
Файл
Формат: MKV
Качество: HDRip-AVC
Видео: MPEG-4 AVC, 784x332, ~ 1109 Кбит/с
Аудио: AAC-LC, 2 ch, ~ 76 Кбит/с
Субтитры: русские, английские
Общее
Уникальный идентификатор : 214512492213815102478294684442000082046 (0xA1619A6C9FC427F7A886B2FD25B7C47E)
Полное имя : D:MOVIESSint.2010.ExKinoRay.mkv
Формат : Matroska
Версия формата : Version 4 / Version 2
Размер файла : 746 Мбайт
Продолжительность : 1 ч. 27 м.
Общий поток : 1186 Кбит/сек
Дата кодирования : UTC 2017-12-13 11:38:01
Программа кодирования : mkvmerge v15.0.0 ('Duel with the Devil') 64-bit
Библиотека кодирования : libebml v1.3.5 + libmatroska v1.4.5
Видео
Идентификатор : 1
Формат : AVC
Формат/Информация : Advanced Video Codec
Профиль формата : High@L4.1
Параметр CABAC формата : Да
Параметр RefFrames формата : 10 кадров
Идентификатор кодека : V_MPEG4/ISO/AVC
Продолжительность : 1 ч. 27 м.
Битрейт : 1109 Кбит/сек
Ширина : 784 пикселя
Высота : 332 пикселя
Соотношение сторон : 2,35:1
Режим частоты кадров : Постоянный
Частота кадров : 23,976 (24000/1001) кадра/сек
Цветовое пространство : YUV
Субдискретизация насыщенности : 4:2:0
Битовая глубина : 8 бит
Тип развёртки : Прогрессивная
Бит/(Пиксели*Кадры) : 0.178
Размер потока : 696 Мбайт (93%)
Библиотека кодирования : x264 core 152 r2851kMod ba24899
Настройки программы : cabac=1 / ref=10 / deblock=1:-3:-2 / analyse=0x3:0x133 / me=umh / subme=11 / psy=1 / fade_compensate=0.00 / psy_rd=1.00:0.12 / mixed_ref=1 / me_range=32 / chroma_me=1 / trellis=2 / 8x8dct=1 / cqm=0 / deadzone=21,11 / fast_pskip=0 / chroma_qp_offset=-3 / threads=6 / lookahead_threads=1 / sliced_threads=0 / nr=0 / decimate=0 / interlaced=0 / bluray_compat=0 / constrained_intra=0 / bframes=10 / b_pyramid=2 / b_adapt=2 / b_bias=0 / direct=3 / weightb=1 / open_gop=0 / weightp=2 / keyint=240 / keyint_min=23 / scenecut=40 / intra_refresh=0 / rc_lookahead=40 / rc=2pass / mbtree=1 / bitrate=1109 / ratetol=1.0 / qcomp=0.60 / qpmin=0 / qpmax=69 / qpstep=4 / cplxblur=20.0 / qblur=0.5 / vbv_maxrate=50000 / vbv_bufsize=62500 / nal_hrd=none / filler=0 / ip_ratio=1.40 / aq=3:1.00
Default : Да
Forced : Нет
Аудио
Идентификатор : 2
Формат : AAC
Формат/Информация : Advanced Audio Codec
Профиль формата : LC
Идентификатор кодека : A_AAC
Продолжительность : 1 ч. 27 м.
Битрейт : 76,0 Кбит/сек
Каналы : 2 канала
Расположение каналов : Front: L R
Частота : 48,0 КГц
Частота кадров : 46,875 кадров/сек (1024 SPF)
Метод сжатия : С потерями
Задержка видео : 9 мс.
Размер потока : 47,8 Мбайт (6%)
Язык : Russian
Default : Да
Forced : Нет
Текст #1
Идентификатор : 3
Формат : UTF-8
Идентификатор кодека : S_TEXT/UTF8
Идентификатор кодека/Информация : UTF-8 Plain Text
Продолжительность : 1 ч. 26 м.
Битрейт : 40 бит/сек
ElementCount : 699
Размер потока : 25,8 Кбайт (0%)
Язык : English
Default : Нет
Forced : Нет
Текст #2
Идентификатор : 4
Формат : UTF-8
Идентификатор кодека : S_TEXT/UTF8
Идентификатор кодека/Информация : UTF-8 Plain Text
Продолжительность : 1 ч. 20 м.
Битрейт : 74 бит/сек
ElementCount : 808
Размер потока : 43,7 Кбайт (0%)
Заголовок : R5
Язык : Russian
Default : Нет
Forced : Нет
Меню
00:00:00.000 : de:00:00:00.000
00:05:41.675 : de:00:05:41.675
00:15:44.819 : de:00:15:44.819
00:22:06.325 : de:00:22:06.325
00:29:18.966 : de:00:29:18.966
00:38:32.685 : de:00:38:32.685
00:43:54.966 : de:00:43:54.966
00:52:19.094 : de:00:52:19.094
00:59:21.933 : de:00:59:21.933
01:06:11.759 : de:01:06:11.759
01:12:28.135 : de:01:12:28.135
01:22:08.423 : de:01:22:08.423



Релиз от:



   Похожие торренты   Торрент   Размер 
В этой теме нет новых непрочитанных сообщений. Кровавый Санта / Sint (2010) HDRip | D

23 | 7

1.37 ГБ

В этой теме нет новых непрочитанных сообщений. Кровавый Санта / Sint (2010) HDRip-AVC от potroks | D

3 | 2

1.25 ГБ

В этой теме нет новых непрочитанных сообщений. Кровавый Санта / Sint (2010) BDRip 1080p | D, L2, L1

4 | 0

9.65 ГБ

В этой теме нет новых непрочитанных сообщений. Кровавый Санта / Sint (2010) DVD9 от Youtracker | лицензия

0 | 2

4.83 ГБ

В этой теме нет новых непрочитанных сообщений. Кровавый Санта / Дед Отмороз / Saint / Sint (2010) BDRip от HQCLUB | Лицензия

29 | 4

1.45 ГБ

В этой теме нет новых непрочитанных сообщений. Санта на продажу / Rare Exports (2010) HDRip-AVC от ExKinoRay | D

32 | 4

745.34 МБ

В этой теме нет новых непрочитанных сообщений. Плохой Санта 2 / Bad Santa 2 (2016) HDRip-AVC от ExKinoRay | Расширенная версия | iTunes, А

68 | 9

1.46 ГБ




Вы не можете начинать темы
Вы не можете отвечать на сообщения
Вы не можете редактировать свои сообщения
Вы не можете удалять свои сообщения
Вы не можете добавлять вложения

Перейти:  
Для Мосгорсуда, Роскомнадзора и рекламодателей: mosgorsud-torrent[собачка]yandex.ru
 Вход
ppkBB3cker v.2 © 2008-2014 @ PPK
[ Time : 0.050s | 18 Queries | GZIP : Off ]

cron