img image001 image001 image001 image001 image001 image001 image001 image001 image001 image001 image001 image001 image001 image001 image001 image001

Planets Sun Sun Sun
Статистика раздачи
Автор: Nickolas3434 | Размер: 4.81 ГБ | Добавлен: 15 дек 2017
Раздают: 0    Качают: 0
Скачать торрент
Скачать торрент
Описание торрента

СообщениеДобавлено: 15 дек 2017 

Информация о фильме
Название: Снеговик
Оригинальное название: The Snowman
Год выхода: 2017
Жанр: Детектив, Драма, Криминал, Триллер, Ужасы
Режиссер: Томас Альфредсон
В ролях: Майкл Фассбендер, Ребекка Фергюсон, Шарлотта Генсбур, Йонас Карлссон, Michael Yates, Ронан Вайберт, Дж.К. Симмонс, Вэл Килмер, Давид Денсик, Тоби Джонс...
О фильме:
В течение многих лет в день, когда выпадает первый снег, бесследно исчезают замужние женщины. Сложить все части загадочного пазла под силу только знаменитому детективу. Он потерял покой и сон, ведь время следующего снегопада неумолимо приближается.

Страна: США
Продолжительность: 01:58:07
Перевод: Любительский (многоголосый, закадровый) | MUZOBOZ
Файл
Кодек: x.264
Качество: WEBRip 1080p
Видео: AVC, 1920x1036 (1.85:1), 23.976 fps, 5 447 Kbps
Звук: AC-3, 48.0 KHz, 2 ch, 384 Kbps, CBR
Субтитры: Корейские (хардсаб)
Общее
Уникальный идентификатор : 192929988755667335683970117129654347204 (0x9124F6D92F69A5F6984B65BD55BDA5C4)
Полное имя : The.Snowman.2017.L.WEBRip.1O8Op.mkv
Формат : Matroska
Версия формата : Version 4 / Version 2
Размер файла : 4,81 Гбайт
Продолжительность : 1 ч. 58 м.
Общий поток : 5833 Кбит/сек
Дата кодирования : UTC 2017-12-13 17:48:18
Программа кодирования : mkvmerge v8.3.0 ('Over the Horizon') 64bit
Библиотека кодирования : libebml v1.3.1 + libmatroska v1.4.2
Видео
Идентификатор : 1
Формат : AVC
Формат/Информация : Advanced Video Codec
Профиль формата : High@L4.1
Параметр CABAC формата : Да
Параметр ReFrames формата : 4 кадра / 5 кадров
Идентификатор кодека : V_MPEG4/ISO/AVC
Продолжительность : 1 ч. 58 м.
Битрейт : 5447 Кбит/сек
Ширина : 1920 пикселей
Высота : 1036 пикселей
Соотношение сторон : 1,85:1
Режим частоты кадров : Переменный
Частота кадров : 23,976 кадра/сек
Цветовое пространство : YUV
Субдискретизация насыщенности : 4:2:0
Битовая глубина : 8 бит
Тип развёртки : Прогрессивная
Бит/(Пиксели*Кадры) : 0.114
Размер потока : 4,49 Гбайт (93%)
Default : Да
Forced : Нет
Аудио
Идентификатор : 2
Формат : AC-3
Формат/Информация : Audio Coding 3
Параметр Endianness формата : Big
Идентификатор кодека : A_AC3
Продолжительность : 1 ч. 58 м.
Вид битрейта : Постоянный
Битрейт : 384 Кбит/сек
Каналы : 2 канала
Расположение каналов : Front: L R
Частота : 48,0 КГц
Частота кадров : 31,250 кадров/сек (1536 spf)
Битовая глубина : 16 бит
Метод сжатия : С потерями
Размер потока : 324 Мбайт (7%)
Язык : Russian
Default : Да
Forced : Нет



Реклама присутствует !



   Похожие торренты   Торрент   Размер 
В этой теме нет новых непрочитанных сообщений. Снеговик / The Snowman (2017) WEBRip | L

0 | 0

2.02 ГБ

В этой теме нет новых непрочитанных сообщений. Снеговик / The Snowman (2017) WEBRip | L

53 | 1

1.37 ГБ

В этой теме нет новых непрочитанных сообщений. Снеговик / The Snowman (2017) WEBRip 720p | L

0 | 0

3.72 ГБ

В этой теме нет новых непрочитанных сообщений. Снеговик / The Snowman (2017) WEB-DL 1080p | iTunes

286 | 15

4.81 ГБ

В этой теме нет новых непрочитанных сообщений. Снеговик / The Snowman (2017) BDRip 1080p | iTunes

166 | 8

9.07 ГБ

В этой теме нет новых непрочитанных сообщений. Снеговик / The Snowman (2017) BDRip 1080p от ExKinoRay | iTunes

493 | 77

11.5 ГБ

В этой теме нет новых непрочитанных сообщений. Снеговик / The Snowman (2017) BDRemux 1080p от ExKinoRay | iTunes

69 | 15

26.9 ГБ




Вы не можете начинать темы
Вы не можете отвечать на сообщения
Вы не можете редактировать свои сообщения
Вы не можете удалять свои сообщения
Вы не можете добавлять вложения

Перейти:  
 Вход
ppkBB3cker v.2 © 2008-2014 @ PPK
[ Time : 0.039s | 17 Queries | GZIP : Off ]

cron