img image001 image001 image001 image001 image001 image001 image001 image001 image001 image001 image001 image001 image001 image001 image001 image001

Planets Sun Sun Sun
Статистика раздачи
Автор: Nickolas3434 | Размер: 3.13 ГБ | Добавлен: 15 янв 2018
Раздают: 14    Качают: 0
Скачать торрент
Скачать торрент
Описание торрента

СообщениеДобавлено: 15 янв 2018 

Информация о фильме
Название: Принцесса-лягушка: Тайна волшебной комнаты
Оригинальное название: The Frog Kingdom 2: Sub-Zero Mission
Год выхода: 2016
Жанр: Мультфильм, приключения, комедия
Режиссер: Чан Гуанси, Пэн Фэй
В ролях: Энтони Падилья, Иэн Хэкокс, Эмбир Чилдерс, Джон Ловиц, Чун Чижэнь, Райан Де Алвис, Джошуа Йохан, Брайан Зиммерман, Джей Шелдон
О фильме:
Где-то далеко, среди изумрудных болот и целебных туманов, лежит благословенное королевство лягушек. Воды его прозрачны, словно хрусталь, а еды хватает всем и вдоволь. Но никто, кроме старого короля, не знает – за процветание нужно благодарить Кристальную лягушку, могущественный артефакт, драгоценность рода лягушачьего. Она настолько важна и настолько секретна, что король скрывал ее существование даже от Принцессы-лягушки, умной не по годам наследницы трона. И все равно - кто-то похищает бесценный тотем. Если его не найти, земноводное королевство не доживет до весны. Лягушачий король начинает расследование, а тем временем в путь отправляется команда самых смелых лягушачьих воинов. До поры они не знают, что в отряд тайно затесалась сама Принцесса-лягушка – молодая, но уже очень способная девочка. Если они не спасут родное болото – никто его не спасет. Мультфильм «Принцесса-лягушка: Тайна волшебной комнаты» подойдет детям в возрасте от 6 до 12 лет.

Страна: США, Китай
Студия: Bang Zoom! Entertainment, Grindstone Entertainment Group, Jilin Yushuo Entertainment
Продолжительность: 01:23:29
Перевод: Дублированный
Файл
Кодек: h.264
Качество: WEB-DLRip 1080p
Видео: MPEG-4 AVC, 5120 Кбит/с, 1920x800, 25,000 кадр/с
Звук: Русский (AC3, 2 ch, 256 Кбит/с)
Субтитры: Нет
Семпл
General
Unique ID : 211294663614810896565467511571763806391 (0x9EF5DF39B88534CAA1EF29A36511C0B7)
Complete name : D:uTorrentPrincessa.ljagushka_2.2016.WEB-DLRip.1080p.MediaClub.mkv
Format : Matroska
Format version : Version 4 / Version 2
File size : 3.13 GiB
Duration : 1 h 23 min
Overall bit rate : 5 368 kb/s
Encoded date : UTC 2018-01-12 18:58:44
Writing application : mkvmerge v17.0.0 ('Be Ur Friend') 64-bit
Writing library : libebml v1.3.5 + libmatroska v1.4.8
Video
ID : 1
Format : AVC
Format/Info : Advanced Video Codec
Format profile : High@L4
Format settings : CABAC / 4 Ref Frames
Format settings, CABAC : Yes
Format settings, RefFrames : 4 frames
Codec ID : V_MPEG4/ISO/AVC
Duration : 1 h 23 min
Bit rate : 5 120 kb/s
Width : 1 920 pixels
Height : 800 pixels
Display aspect ratio : 2.40:1
Frame rate mode : Constant
Frame rate : 25.000 FPS
Color space : YUV
Chroma subsampling : 4:2:0
Bit depth : 8 bits
Scan type : Progressive
Bits/(Pixel*Frame) : 0.133
Stream size : 2.98 GiB (95%)
Title : WEB-DLRip by Silverok
Writing library : x264 core 142
Encoding settings : cabac=1 / ref=3 / deblock=1:0:0 / analyse=0x3:0x113 / me=hex / subme=7 / psy=1 / psy_rd=1.00:0.00 / mixed_ref=1 / me_range=16 / chroma_me=1 / trellis=1 / 8x8dct=1 / cqm=0 / deadzone=21,11 / fast_pskip=1 / chroma_qp_offset=-2 / threads=36 / lookahead_threads=6 / sliced_threads=0 / nr=0 / decimate=1 / interlaced=0 / bluray_compat=0 / constrained_intra=0 / bframes=6 / b_pyramid=2 / b_adapt=1 / b_bias=0 / direct=1 / weightb=1 / open_gop=0 / weightp=2 / keyint=50 / keyint_min=26 / scenecut=0 / intra_refresh=0 / rc_lookahead=40 / rc=2pass / mbtree=1 / bitrate=5120 / ratetol=1.0 / qcomp=0.60 / qpmin=0 / qpmax=69 / qpstep=4 / cplxblur=20.0 / qblur=0.5 / vbv_maxrate=7680 / vbv_bufsize=20480 / nal_hrd=none / filler=0 / ip_ratio=1.40 / aq=1:1.00
Default : Yes
Forced : No
Audio
ID : 2
Format : AC-3
Format/Info : Audio Coding 3
Codec ID : A_AC3
Duration : 1 h 23 min
Bit rate mode : Constant
Bit rate : 256 kb/s
Channel(s) : 2 channels
Channel positions : Front: L R
Sampling rate : 48.0 kHz
Frame rate : 31.250 FPS (1536 SPF)
Bit depth : 16 bits
Compression mode : Lossy
Stream size : 153 MiB (5%)
Language : Russian
Service kind : Complete Main
Default : Yes
Forced : No


Релиз от: | Silverok



   Похожие торренты   Торрент   Размер 
В этой теме нет новых непрочитанных сообщений. Принцесса-лягушка: Тайна волшебной комнаты / The Frog Kingdom 2: Sub-Zero Mission (2016) WEB-DLRip | L

1141 | 39

1.44 ГБ

В этой теме нет новых непрочитанных сообщений. Принцесса-лягушка: Тайна волшебной комнаты / The Frog Kingdom 2: Sub-Zero Mission (2016) WEB-DLRip | Line

93 | 3

1.37 ГБ

В этой теме нет новых непрочитанных сообщений. Принцесса-лягушка: Операция «разморозка» / The Frog Kingdom 2: Sub-Zero Mission (2016) WEB-DLRip от ImperiaFilm | L

306 | 20

745.06 МБ

В этой теме нет новых непрочитанных сообщений. Принцесса-лягушка / Frog Kingdom (2013) WEB-DLRip от MegaPeer | D

73 | 7

1.27 ГБ

В этой теме нет новых непрочитанных сообщений. Принцесса-лягушка / Frog Kingdom (2013) WEB-DLRip 720p от MegaPeer | D

1068 | 30

1.59 ГБ

В этой теме нет новых непрочитанных сообщений. Принцесса и лягушка / The Princess and the Frog (2009) BDRip 720p от Leonardo and Scarabey | D

812 | 36

2.45 ГБ

В этой теме нет новых непрочитанных сообщений. Тайна тёмной комнаты (2014) DVDRip-AVC от MediaClub

566 | 34

956.43 МБ




Вы не можете начинать темы
Вы не можете отвечать на сообщения
Вы не можете редактировать свои сообщения
Вы не можете удалять свои сообщения
Вы не можете добавлять вложения

Перейти:  
 Вход
ppkBB3cker v.2 © 2008-2014 @ PPK
[ Time : 0.035s | 18 Queries | GZIP : Off ]

cron