img image001 image001 image001 image001 image001 image001 image001 image001 image001 image001 image001 image001 image001 image001 image001
Planets Sun Sun Sun
Статистика раздачи
Автор: Nickolas3434 | Размер: 1.27 ГБ | Добавлен: 15 янв 2018
Раздают: 40    Качают: 1
Скачать торрент
Скачать торрент
Описание торрента

СообщениеДобавлено: 15 янв 2018 

Жанр: Ужасы, триллер, драма, фантастика
Режиссер: Алина Галимуллина, Тимур Романов
Актеры: Алина Галимуллина, Саид Гришин, Дмитрий Игнатьев, Диана Ахмедова, Тимур Мухаметшин, Алина Шарапова, Ильдар Ильдарханов, Лилия Калимуллина, Эрадж Шамс, Антон Носов
Описание:
Россия охвачена мутацией неизвестного вируса «Вирион», превращающего людей в бешеных зомби. Молодая девушка, ее брат подросток и их случайный попутчик покидают зараженную Казань в поисках безопасного места. Бензин на нуле, впереди пустынная дорога и толпы заразных. На что пойдут эти люди во имя выживания?

Производство: Россия
Продолжительность: 01:46:32
Субтитры: Отсутствуют
Возраст: 16+ (зрителям, достигшим 16 лет)
Качество видео: WEBRip
Видео: Xvid, 720x320 (2.25:1), ~1505 Kbps
Аудио: AC3, 2 ch, 192 Kbps
Проект является дебютным полнометражным фильмом для всех членов команды создателей.
Часть кинобюджета собиралась при помощи краудфандинговой площадки «Boomstarter».
На создание картины ушло 1,5 года.
General
Complete name : E:Вирион_(2016)_WEBRIP.avi
Format : AVI
Format/Info : Audio Video Interleave
File size : 1.27 GiB
Duration : 1 h 46 min
Overall bit rate : 1 704 kb/s
Writing application : VirtualDubModRus 1.5.10.2 (build 2542/release)
Writing library : VirtualDubMod build 2542/release
Video
ID : 0
Format : xvid
Codec ID : xvid
Duration : 1 h 46 min
Bit rate : 1 506 kb/s
Width : 720 pixels
Height : 320 pixels
Display aspect ratio : 2.25:1
Frame rate : 25.000 FPS
Bits/(Pixel*Frame) : 0.261
Stream size : 1.12 GiB (88%)
Audio
ID : 1
Format : AC-3
Format/Info : Audio Coding 3
Codec ID : 2000
Duration : 1 h 46 min
Bit rate mode : Constant
Bit rate : 192 kb/s
Channel(s) : 2 channels
Channel positions : Front: L R
Sampling rate : 48.0 kHz
Frame rate : 31.250 FPS (1536 SPF)
Bit depth : 16 bits
Compression mode : Lossy
Stream size : 146 MiB (11%)
Alignment : Aligned on interleaves
Interleave, duration : 160 ms (4.00 video frames)
Interleave, preload duratio : 640 ms
Service kind : Complete Main



   Похожие торренты   Торрент   Размер 
В этой теме нет новых непрочитанных сообщений. Семь первых поцелуев / Cheotkiseuman ilgobbeonjjae [01-07 из 10] (2016) WEBRip 720p, WEBRip 1080i | L2

4 | 0

1.02 ГБ

В этой теме нет новых непрочитанных сообщений. Демоница / Девушка-демон / Ban yao qing cheng [01x01-05 из 20] (2016) WEBRip 720p, WEBRip 1080p | L2

0 | 0

6.81 ГБ

В этой теме нет новых непрочитанных сообщений. Демоница / Девушка-демон / Ban yao qing cheng [01x01-05 из 20] (2016) WEBRip 720p, WEBRip 1080p | L2

3 | 1

8.67 ГБ

В этой теме нет новых непрочитанных сообщений. Мотоспорт. Moto Grand Prix (MotoGP). 2016. 13/18 2016. GP TIM di San Marino. Гонка (2016) WEBRip 720p

7 | 0

1.54 ГБ

В этой теме нет новых непрочитанных сообщений. Веган 2016 / Vegan 2016 (2016) WEBRip 720p | L1

1 | 0

197.66 МБ

В этой теме нет новых непрочитанных сообщений. Футбол. Чемпионат России 2016-17. 1-й тур. Зенит - Локомотив [Матч ТВ] [30.07] (2016) WEBRip-AVC

24 | 1

1.43 ГБ

В этой теме нет новых непрочитанных сообщений. Футбол. Чемпионат России 2016-17. 1-й тур. Анжи - ЦСКА [Матч ТВ] [30.07] (2016) WEBRip-AVC

19 | 2

1.19 ГБ




Вы не можете начинать темы
Вы не можете отвечать на сообщения
Вы не можете редактировать свои сообщения
Вы не можете удалять свои сообщения
Вы не можете добавлять вложения

Перейти:  
Для Мосгорсуда, Роскомнадзора и рекламодателей: mosgorsud-torrent[собачка]yandex.ru
 Вход
ppkBB3cker v.2 © 2008-2014 @ PPK
[ Time : 0.060s | 17 Queries | GZIP : Off ]

cron