img image001 image001 image001 image001 image001 image001 image001 image001 image001 image001 image001 image001 image001 image001 image001 image001

Planets Sun Sun Sun
Статистика раздачи
Автор: Nickolas3434 | Размер: 3.77 ГБ | Добавлен: 15 янв 2018
Раздают: 11    Качают: 0
Скачать торрент
Скачать торрент
Описание торрента

СообщениеДобавлено: 15 янв 2018 

Информация о фильме
Наименование: Молодой Карл Маркс
Оригинальное наименование: Le jeune Karl Marx
Произведено: Германия, Франция, Бельгия
Категория: драма, биография, история
Режиссер постановщик: Рауль Пек
В главных ролях: Аугуст Диль, Штефан Конарске, Вики Крипс, Оливье Гурме, Ханна Стил, Александр Шеер, Ханс-Уве Бауэр, Михаэль Бранднер, Иван Франек, Питер Бенедикт
О фильме: Марксу всего 26 лет, он живет в изгнании в Париже и по горло в долгах. Знакомство с Фридрихом Энгельсом сделает его одним из величайших мировых философов.

Файл
Качество: BDRip 720p
Видео данные: MKV, 1280x536 (2:40:1), 24.000 fps, 4000 Кбит/с
Аудио данные: AC3, 2 ch, 640 Кбит/с
Перевод: Любительский многоголосый (GreenРай Studio)
Продолжительность: 01:58:29
Над релизом работали:
Состав дикторов: Екатерина Костина и Илья Кочетков, Игорь Кузьмин
Руководитель проекта и координатор: Евгений Овчаренко
Организатор и координатор: Никита Марков
Пиар менеджер студии: Игорь Обухов
Техническая поддержка: Александр Методий
Над переводом работала: Любовь Геннадиевна
General
Unique ID : 196456990265626631713786008868833298809 (0x93CC3D72D8D53B798AE6820F25018979)
Complete name : D:карл марксLe.jeune.Karl.Marx.2017.P.BDRip.720p.mkv
Format : Matroska
Format version : Version 4 / Version 2
File size : 3.77 GiB
Duration : 1 h 58 min
Overall bit rate mode : Constant
Overall bit rate : 4 552 kb/s
Encoded date : UTC 2018-01-11 12:16:26
Writing application : mkvmerge v8.3.0 ('Over the Horizon') 64bit
Writing library : libebml v1.3.1 + libmatroska v1.4.2
Video
ID : 1
Format : AVC
Format/Info : Advanced Video Codec
Format profile : Main@L3.1
Format settings, CABAC : Yes
Format settings, ReFrames : 3 frames
Format settings, GOP : M=4, N=15
Codec ID : V_MPEG4/ISO/AVC
Duration : 1 h 58 min
Bit rate mode : Constant
Bit rate : 4 000 kb/s
Width : 1 280 pixels
Height : 536 pixels
Display aspect ratio : 2.40:1
Frame rate mode : Constant
Frame rate : 24.000 FPS
Standard : NTSC
Color space : YUV
Chroma subsampling : 4:2:0
Bit depth : 8 bits
Scan type : Progressive
Bits/(Pixel*Frame) : 0.243
Stream size : 3.24 GiB (86%)
Language : English
Default : Yes
Forced : No
Color range : Limited
Audio
ID : 2
Format : AC-3
Format/Info : Audio Coding 3
Mode extension : CM (complete main)
Format settings, Endianness : Big
Codec ID : A_AC3
Duration : 1 h 58 min
Bit rate mode : Constant
Bit rate : 640 kb/s
Channel(s) : 2 channels
Channel positions : Front: L R
Sampling rate : 48.0 kHz
Frame rate : 31.250 FPS (1536 spf)
Compression mode : Lossy
Stream size : 543 MiB (14%)
Default : Yes
Forced : No

ВНИМАНИЕ! Присутствует реклама!

Релиз от:



   Похожие торренты   Торрент   Размер 
В этой теме нет новых непрочитанных сообщений. Молодой Карл Маркс / Le jeune Karl Marx (2017) HDRip | L

20 | 0

1.37 ГБ

В этой теме нет новых непрочитанных сообщений. Карл Мясник против Топора / Karl the Butcher vs Axe (2010) DVDRip

1 | 2

822.65 МБ

В этой теме нет новых непрочитанных сообщений. Карл Мясник против Топора / Karl the Butcher vs Axe (2010) DVDRip от F-Torrent

1 | 4

1.35 ГБ

В этой теме нет новых непрочитанных сообщений. Вечно молодой / Rock'n Roll (2017) BDRip 720p | L

96 | 1

4.74 ГБ

В этой теме нет новых непрочитанных сообщений. Призраки / Hjemsokt / Haunted (Карл Кристиан Раабе) [2017, триллер, криминал,BDRip-AVC] AVO

41 | 0

1.01 ГБ

В этой теме нет новых непрочитанных сообщений. Молодая женщина / Jeune femme (Леонор Серай) [2017, драма, комедия, BDRip] MVO

65 | 0

1.46 ГБ

В этой теме нет новых непрочитанных сообщений. Karl Jenkins - Symphonic Adiemus (2017) FLAC

25 | 0

332.13 МБ




Вы не можете начинать темы
Вы не можете отвечать на сообщения
Вы не можете редактировать свои сообщения
Вы не можете удалять свои сообщения
Вы не можете добавлять вложения

Перейти:  
 Вход
ppkBB3cker v.2 © 2008-2014 @ PPK
[ Time : 4.154s | 17 Queries | GZIP : Off ]

cron