img image001 image001 image001 image001 image001 image001 image001 image001 image001 image001 image001 image001 image001 image001 image001
Planets Sun Sun Sun
Статистика раздачи
Автор: Nickolas3434 | Размер: 3.89 ГБ | Добавлен: 15 янв 2018
Раздают: 34    Качают: 0
Скачать торрент
Скачать торрент
Описание торрента

СообщениеДобавлено: 15 янв 2018 

Название: Бандиты
Оригинальное название: Bandits
Год выпуска: 2001
Жанр: Драма, мелодрама, комедия, криминал
Выпущено: США, Metro-Goldwyn-Mayer (MGM), Hyde Park Entertainment, Empire Pictures
Продолжительность: 02:03:00
Режиссер: Бэрри Левинсон
В ролях: Брюс Уиллис, Билли Боб Торнтон, Кейт Бланшетт, Трой Гэрити, Брайан Ф. О’Бирн, Стэйси Трэвис, Бобби Слэйтон, Дженьюэри Джонс, Азура Скай, Пегги Майли, Уильям Конверс-Робертс, Ричард Риле, Миколе Миркурио, Скотт Баркхолдер, Энтони Берч, Сэм Левинсон, Скаут ЛаРу Уиллис, Таллула Белль Уиллис, Джон Эванс, Джон Харингтон Блэнд
О фильме: Встречайте Джо Блейка и Терри Коллинза — самых удачливых грабителей банков в истории Америки! Неотразимый мачо Джо и фантастический ипохондрик Терри, вечно жалующийся на воображаемые недуги, без единого выстрела, на одном великом своем обаянии и очаровательном нахальстве взяли больше банков, чем кто-либо. Казалось, удача никогда не оставит этих вежливых и остроумных налетчиков, ставших чуть ли не национальными героями. Но вот волею судеб в компанию героев попадает захотевшая вкусить приключений бедовая домохозяйка Кейт Уилер, в которую они оба немедленно влюбляются — и все в жизни парней идет кувырком.

Качество: BDRip-AVC
Видео: AVC, 1024x428 (2.35:1), 23.976 fps, 2 350 Kbps (0.224 bit/pixel)
Аудио #1: AC-3, 48.0 KHz, 6 ch, 448 Kbps, CBR (Russian) - многоголосый (R5)
Аудио #2: AC-3, 48.0 KHz, 6 ch, 384 Kbps, CBR (Russian) - многоголосый
Аудио #3: AC-3, 48.0 KHz, 6 ch, 448 Kbps, CBR (Russian) - А.Гаврилов
Аудио #4: AC-3, 48.0 KHz, 6 ch, 448 Kbps, CBR (Russian) - Ю.Живов
Аудио #5: AC-3, 48.0 KHz, 6 ch, 448 Kbps, CBR (English) - оригинал
Субтитры: Русские, английские
Скриншоты:

Релиз от: K.E.N (NNM-CLUB)
Формат : Matroska
Версия формата : Version 2
Размер файла : 3,89 Гбайт
Продолжительность : 2 ч. 3 м.
Общий поток : 4529 Кбит/сек
Дата кодирования : UTC 2016-04-14 08:49:51
Программа кодирования : mkvmerge v5.3.0 ('I could have danced') built on Feb 9 2012 10:38:07
Библиотека кодирования : libebml v1.2.3 + libmatroska v1.3.0
Attachements : poster 7.jpg
Видео
Идентификатор : 1
Формат : AVC
Формат/Информация : Advanced Video Codec
Профиль формата : High@L4.1
Параметр CABAC формата : Да
Параметр ReFrames формата : 10 кадров
Идентификатор кодека : V_MPEG4/ISO/AVC
Продолжительность : 2 ч. 3 м.
Битрейт : 2350 Кбит/сек
Ширина : 1024 пикселя
Высота : 428 пикселей
Соотношение сторон : 2,40:1
Режим частоты кадров : Постоянный
Частота кадров : 23,976 кадра/сек
Цветовое пространство : YUV
Субдискретизация насыщенности : 4:2:0
Битовая глубина : 8 бит
Тип развёртки : Прогрессивная
Бит/(Пиксели*Кадры) : 0.224
Размер потока : 1,94 Гбайт (50%)
Библиотека кодирования : x264 core 146 r2538 121396c
Настройки программы : cabac=1 / ref=10 / deblock=1:-3:-3 / analyse=0x3:0x133 / me=umh / subme=11 / psy=1 / psy_rd=1.00:0.10 / mixed_ref=1 / me_range=32 / chroma_me=1 / trellis=2 / 8x8dct=1 / cqm=0 / deadzone=21,11 / fast_pskip=0 / chroma_qp_offset=-3 / threads=12 / lookahead_threads=2 / sliced_threads=0 / nr=0 / decimate=0 / interlaced=0 / bluray_compat=0 / constrained_intra=0 / bframes=8 / b_pyramid=2 / b_adapt=2 / b_bias=0 / direct=3 / weightb=1 / open_gop=0 / weightp=2 / keyint=240 / keyint_min=23 / scenecut=40 / intra_refresh=0 / rc=2pass / mbtree=0 / bitrate=2350 / ratetol=1.0 / qcomp=0.60 / qpmin=0 / qpmax=69 / qpstep=4 / cplxblur=20.0 / qblur=0.5 / ip_ratio=1.40 / pb_ratio=1.30 / aq=1:0.70
Язык : English
Default : Да
Forced : Нет
Аудио #1
Идентификатор : 2
Формат : AC-3
Формат/Информация : Audio Coding 3
Расширение режима : CM (complete main)
Параметр Endianness формата : Big
Идентификатор кодека : A_AC3
Продолжительность : 2 ч. 3 м.
Вид битрейта : Постоянный
Битрейт : 448 Кбит/сек
Каналы : 6 каналов
Расположение каналов : Front: L C R, Side: L R, LFE
Частота : 48,0 КГц
Метод сжатия : С потерями
Размер потока : 394 Мбайт (10%)
Заголовок : MVO R5
Язык : Russian
Default : Да
Forced : Да
Аудио #2
Идентификатор : 3
Формат : AC-3
Формат/Информация : Audio Coding 3
Расширение режима : CM (complete main)
Параметр Endianness формата : Big
Идентификатор кодека : A_AC3
Продолжительность : 2 ч. 3 м.
Вид битрейта : Постоянный
Битрейт : 384 Кбит/сек
Каналы : 6 каналов
Расположение каналов : Front: L C R, Side: L R, LFE
Частота : 48,0 КГц
Метод сжатия : С потерями
Размер потока : 338 Мбайт (8%)
Заголовок : MVO
Язык : Russian
Default : Нет
Forced : Нет
Аудио #3
Идентификатор : 4
Формат : AC-3
Формат/Информация : Audio Coding 3
Расширение режима : CM (complete main)
Параметр Endianness формата : Big
Идентификатор кодека : A_AC3
Продолжительность : 2 ч. 3 м.
Вид битрейта : Постоянный
Битрейт : 448 Кбит/сек
Каналы : 6 каналов
Расположение каналов : Front: L C R, Side: L R, LFE
Частота : 48,0 КГц
Метод сжатия : С потерями
Размер потока : 394 Мбайт (10%)
Заголовок : AVO [А. Гаврилов]
Язык : Russian
Default : Нет
Forced : Нет
Аудио #4
Идентификатор : 5
Формат : AC-3
Формат/Информация : Audio Coding 3
Расширение режима : CM (complete main)
Параметр Endianness формата : Big
Идентификатор кодека : A_AC3
Продолжительность : 2 ч. 3 м.
Вид битрейта : Постоянный
Битрейт : 448 Кбит/сек
Каналы : 6 каналов
Расположение каналов : Front: L C R, Side: L R, LFE
Частота : 48,0 КГц
Метод сжатия : С потерями
Размер потока : 394 Мбайт (10%)
Заголовок : AVO [Ю. Живов]
Язык : Russian
Default : Нет
Forced : Нет
Аудио #5
Идентификатор : 6
Формат : AC-3
Формат/Информация : Audio Coding 3
Расширение режима : CM (complete main)
Параметр Endianness формата : Big
Идентификатор кодека : A_AC3
Продолжительность : 2 ч. 3 м.
Вид битрейта : Постоянный
Битрейт : 448 Кбит/сек
Каналы : 6 каналов
Расположение каналов : Front: L C R, Side: L R, LFE
Частота : 48,0 КГц
Метод сжатия : С потерями
Размер потока : 394 Мбайт (10%)
Язык : English
Default : Нет
Forced : Нет
Текст #1
Идентификатор : 7
Формат : UTF-8
Идентификатор кодека : S_TEXT/UTF8
Идентификатор кодека/Информация : UTF-8 Plain Text
Заголовок : Ful
Язык : Russian
Default : Нет
Forced : Нет
Текст #2
Идентификатор : 8
Формат : UTF-8
Идентификатор кодека : S_TEXT/UTF8
Идентификатор кодека/Информация : UTF-8 Plain Text
Заголовок : Full
Язык : English
Default : Нет
Forced : Нет
Текст #3
Идентификатор : 9
Формат : UTF-8
Идентификатор кодека : S_TEXT/UTF8
Идентификатор кодека/Информация : UTF-8 Plain Text
Заголовок : SDH
Язык : English
Default : Нет
Forced : Нет
Меню
00:00:00.000 : en:Chapter 1
00:05:54.145 : en:Chapter 2
00:08:56.703 : en:Chapter 3
00:12:37.507 : en:Chapter 4
00:18:36.866 : en:Chapter 5
00:22:57.666 : en:Chapter 6
00:31:39.147 : en:Chapter 7
00:36:08.875 : en:Chapter 8
00:41:37.203 : en:Chapter 9
00:47:21.338 : en:Chapter 10
00:56:50.866 : en:Chapter 11
01:02:03.553 : en:Chapter 12
01:09:32.585 : en:Chapter 13
01:19:43.404 : en:Chapter 14
01:23:55.030 : en:Chapter 15
01:30:39.142 : en:Chapter 16
01:39:09.777 : en:Chapter 17
01:44:31.140 : en:Chapter 18
01:47:35.991 : en:Chapter 19
01:56:46.541 : en:Chapter 20
02:01:30.022 : en:Chapter 21



   Похожие торренты   Торрент   Размер 
В этой теме нет новых непрочитанных сообщений. Бандиты / Bandits (2001) BDRip-AVC | P

5 | 1

2.74 ГБ

В этой теме нет новых непрочитанных сообщений. Бандиты / Bandits (2001) BDRip 1080p | P, A

61 | 7

8.86 ГБ

В этой теме нет новых непрочитанных сообщений. Бандиты / Bandits (2001) BDRip от HQCLUB

85 | 3

2.18 ГБ

В этой теме нет новых непрочитанных сообщений. Бандиты / Bandits (2001) BDRip 720p от ivandubskoj | P, A

25 | 0

7.91 ГБ

В этой теме нет новых непрочитанных сообщений. Бандиты / Bandits (2001) HDTVRip-АVC

46 | 1

1.46 ГБ

В этой теме нет новых непрочитанных сообщений. Бандиты / Bandits (2001) DVDRip

1 | 9

2.44 ГБ

В этой теме нет новых непрочитанных сообщений. Бандиты / Bandits (2001) DVDRip

6 | 4

1.46 ГБ




Вы не можете начинать темы
Вы не можете отвечать на сообщения
Вы не можете редактировать свои сообщения
Вы не можете удалять свои сообщения
Вы не можете добавлять вложения

Перейти:  
Для Мосгорсуда, Роскомнадзора и рекламодателей: mosgorsud-torrent[собачка]yandex.ru
 Вход
ppkBB3cker v.2 © 2008-2014 @ PPK
[ Time : 0.039s | 19 Queries | GZIP : Off ]

cron