img image001 image001 image001 image001 image001 image001 image001 image001 image001 image001 image001 image001 image001 image001 image001 image001
Planets Sun Sun Sun
Статистика раздачи
Автор: Nickolas3434 | Размер: 3.73 ГБ | Добавлен: 22 янв 2018
Раздают: 71    Качают: 0
Скачать торрент
Скачать торрент
Описание торрента

СообщениеДобавлено: 22 янв 2018 

Зверополис / Zootopia
Год выпуска: 2016
Страна: США
Жанр: мультфильм, боевик, комедия, криминал, приключения, семейный
Продолжительность: 01:48:32
Перевод: Дубляж, Оригинал
Субтитры: Русские (полные),Украинские (полные), Английские (полные,SDH,SHD Colored)
Режиссер: Байрон Ховард, Рич Мур, Джаред Буш

В ролях: Джиннифер Гудвин, Джейсон Бейтмен, Идрис Эльба, Дженни Слейт, Нейт Торренс, Бонни Хант, Дон Лейк, Томми Чонг, Дж.К. Симмонс, Октавия Спенсер, Алан Тьюдик, Шакира, Рэймонд С. Перси, Делла Саба, Морис ЛаМарш, Фуския, Джон Ди Маджио, Кэти Лоус, Джесси Корти, Том ’Тайни’ Листер мл.
Описание: Зверополис - городской комплекс, представляющий собой умилительное единение всех звеньев пищевой цепочки, которые живут в обособленных районах, полностью соответствующим основным климатическим зонам. Тут вам и элитный участок пустыни с богатыми месторождениями нефти и газа, и заснеженный Тундратаун с засевшим внутри мафиозным кланом под охраной белых медведей, и дождевые леса с повсеместными зарослями, и центральная застройка с деловыми кварталами. Но не все спокойно в зверином королевстве. Один за другим начинают пропадать представители разных видов хищников. И там, где не справляются большие и сильные полицейские со стальными мускулами и натруженным мозжечком, в дело вступает маленькая и пушистая крольчиха Джуди Хопс, первый офицер полиции из кроликов. Взяв в оборот хитрого лиса-комбинатора Ника Уайлда, она преисполнена решимости отыскать пропавших животных. Но невольные напарники даже не представляют, что их ждет...
Доп. информация: Сделано на основе 16-го обновления.С применением технологии HEVC.
Качество: BDRip 720p / 60 FPS by Tiberiumsun69
Формат: MKV
Видео кодек: H.265
Аудио кодек: AC3
Видео: HEVC, 1280x536 (2.40:1), 3000 kbps, 60.000 fps, 0.073 bpp
Аудио#1: AC3 / 5.1 / 48 kHz / 640 kbps / 16 bit | Дубляж (Русский)
Аудио#2: AC3 / 5.1 / 48 kHz / 640 kbps / 16 bit | Дубляж (Украинский)
Аудио#3: AC3 / 5.1 / 48 kHz / 640 kbps / 16 bit | Оригинал



VIDEO ENCODING
Encoding video to: F:Temp001.265
x265 10-bit depth 3000kbps 1280x536 59.993fps (390711 frames)
avs4x26x.exe: -L x265_10b.exe "F:Temp001.avs" --bitrate 3000 --preset medium --profile main10 --level-idc 4.0 --sar 1:1 --output "F:Temp001.265"
yuv [info]: 1280x536 fps 51414/857 i420p8 sar 1:1 unknown frame count
x265 [info]: HEVC encoder version 1.5+129-018e8bbaa854
x265 [info]: build info [Windows][GCC 4.8.2][32 bit] 16bpp
x265 [info]: using cpu capabilities: MMX2 SSE2Fast SSSE3 SSE4.2 AVX AVX2 FMA3 LZCNT BMI2
x265 [info]: Main 10 profile, Level-4 (Main tier)
x265 [info]: Thread pool created using 8 threads
x265 [info]: frame threads / pool features : 3 / wpp(9 rows)
x265 [info]: Internal bit depth : 10
x265 [info]: Coding QT: max CU size, min CU size : 64 / 8
x265 [info]: Residual QT: max TU size, max depth : 32 / 1 inter / 1 intra
x265 [info]: ME / range / subpel / merge : hex / 57 / 2 / 2
x265 [info]: Keyframe min / max / scenecut : 25 / 250 / 40
x265 [info]: Lookahead / bframes / badapt : 20 / 4 / 2
x265 [info]: b-pyramid / weightp / weightb / refs: 1 / 1 / 0 / 3
x265 [info]: Rate Control / AQ-Strength / CUTree : ABR-3000 kbps / 1.0 / 1
x265 [info]: tools: rd=3 psy-rd=0.30 deblock sao signhide tmvp
x265 [info]: frame I: 2163, Avg QP:16.50 kb/s: 37492.70
x265 [info]: frame P: 96291, Avg QP:17.33 kb/s: 9508.92
x265 [info]: frame B: 292257, Avg QP:22.55 kb/s: 597.33
x265 [info]: global : 390711, Avg QP:21.23 kb/s: 2997.85
x265 [info]: Weighted P-Frames: Y:5.3% UV:4.1%
x265 [info]: consecutive B-frames: 2.9% 2.8% 8.4% 66.2% 19.6%
x265 [total]: encoded 390711 frames in 21035.38s (18.57 fps), 2997.85 kb/s
avs [info]: AviSynth 2.60, build:Feb 20 2015 [03:16:45]
avs [info]: Video colorspace: YV12
avs [info]: Video resolution: 1280x536
avs [info]: Video framerate: 51414/857
avs [info]: Video framecount: 390711
avs4x26x [info]: "x265_10b.exe" - --bitrate 3000 --preset medium --profile main10 --level-idc 4.0 --sar 1:1 --output F:Temp001.265 --frames 390711 --fps 51414/857 --input-res 1280x536 --input-csp i420

Общее
Unique ID : 146980012441403180010525879073047634237 (0x6E93521A9F6B82D84B6781C33D38E13D)
Complete name : F:ТоррентыZootopia BDRip-HEVC 720p 60fps.mkv
Format : Matroska
Format version : Version 4 / Version 2
File size : 3,73 Гбайт
Duration : 1 ч. 48 м.
Overall bit rate : 4925 Кбит/сек
Movie name : Зверополис / Zootopia (2016) by Tiberiumsun69
Encoded date : UTC 2018-01-18 04:49:17
Writing application : mkvmerge v20.0.0 ('I Am The Sun') 64-bit
Writing library : libebml v1.3.5 + libmatroska v1.4.8
Видео
ID : 1
Format : HEVC
Format/Info : High Efficiency Video Coding
Format profile : Main 10@L4@Main
Codec ID : V_MPEGH/ISO/HEVC
Duration : 1 ч. 48 м.
Bit rate : 3000 Кбит/сек
Width : 1280 пикселей
Height : 536 пикселей
Display aspect ratio : 2,40:1
Frame rate mode : Постоянный
Frame rate : 60,000 кадров/сек
Color space : YUV
Chroma subsampling : 4:2:0
Bit depth : 10 бит
Bits/(Pixel*Frame) : 0.073
Stream size : 2,27 Гбайт (61%)
Default : Да
Forced : Нет
Аудио #1
ID : 2
Format : AC-3
Format/Info : Audio Coding 3
Codec ID : A_AC3
Duration : 1 ч. 48 м.
Bit rate mode : Постоянный
Bit rate : 640 Кбит/сек
Channel(s) : 6 каналов
Channel positions : Front: L C R, Side: L R, LFE
Sampling rate : 48,0 КГц
Frame rate : 31,250 кадров/сек (1536 SPF)
Bit depth : 16 бит
Compression mode : С потерями
Stream size : 497 Мбайт (13%)
Title : Дубляж
Language : Russian
Service kind : Complete Main
Default : Да
Forced : Нет
Аудио #2
ID : 3
Format : AC-3
Format/Info : Audio Coding 3
Codec ID : A_AC3
Duration : 1 ч. 48 м.
Bit rate mode : Постоянный
Bit rate : 640 Кбит/сек
Channel(s) : 6 каналов
Channel positions : Front: L C R, Side: L R, LFE
Sampling rate : 48,0 КГц
Frame rate : 31,250 кадров/сек (1536 SPF)
Bit depth : 16 бит
Compression mode : С потерями
Stream size : 497 Мбайт (13%)
Title : Дубляж
Language : Ukrainian
Service kind : Complete Main
Default : Нет
Forced : Нет
Аудио #3
ID : 4
Format : AC-3
Format/Info : Audio Coding 3
Codec ID : A_AC3
Duration : 1 ч. 48 м.
Bit rate mode : Постоянный
Bit rate : 640 Кбит/сек
Channel(s) : 6 каналов
Channel positions : Front: L C R, Side: L R, LFE
Sampling rate : 48,0 КГц
Frame rate : 31,250 кадров/сек (1536 SPF)
Bit depth : 16 бит
Compression mode : С потерями
Stream size : 497 Мбайт (13%)
Title : Original
Language : English
Service kind : Complete Main
Default : Нет
Forced : Нет
Текст #1
ID : 5
Format : UTF-8
Codec ID : S_TEXT/UTF8
Codec ID/Info : UTF-8 Plain Text
Duration : 1 ч. 38 м.
Bit rate : 122 бит/сек
Count of elements : 1745
Stream size : 88,6 Кбайт (0%)
Language : Russian
Default : Нет
Forced : Нет
Текст #2
ID : 6
Format : UTF-8
Codec ID : S_TEXT/UTF8
Codec ID/Info : UTF-8 Plain Text
Duration : 1 ч. 35 м.
Bit rate : 120 бит/сек
Count of elements : 1373
Stream size : 83,9 Кбайт (0%)
Title : Gedet
Language : Ukrainian
Default : Нет
Forced : Нет
Текст #3
ID : 7
Format : UTF-8
Codec ID : S_TEXT/UTF8
Codec ID/Info : UTF-8 Plain Text
Duration : 1 ч. 38 м.
Bit rate : 74 бит/сек
Count of elements : 1700
Stream size : 53,7 Кбайт (0%)
Language : English
Default : Нет
Forced : Нет
Текст #4
ID : 8
Format : UTF-8
Codec ID : S_TEXT/UTF8
Codec ID/Info : UTF-8 Plain Text
Duration : 1 ч. 45 м.
Bit rate : 82 бит/сек
Count of elements : 2295
Stream size : 64,3 Кбайт (0%)
Title : SDH
Language : English
Default : Нет
Forced : Нет
Текст #5
ID : 9
Format : UTF-8
Codec ID : S_TEXT/UTF8
Codec ID/Info : UTF-8 Plain Text
Duration : 1 ч. 45 м.
Bit rate : 105 бит/сек
Count of elements : 2295
Stream size : 82,0 Кбайт (0%)
Title : SDH Colored
Language : English
Default : Нет
Forced : Нет
Меню
00:00:00.000 : en:Prologue
00:00:59.559 : en:Gideon Grey
00:05:50.100 : en:The Police Academy
00:10:05.563 : en:Welcome to Zootopia
00:14:31.537 : en:Meter Maid Duty
00:18:24.019 : en:Pawpsicles
00:26:03.353 : en:The Weasel Chase
00:30:57.439 : en:It's Called A Hustle
00:37:07.100 : en:The Naturalist Club
00:40:43.441 : en:Department Of 10
00:44:31.752 : en:Mr. Big
00:51:40.430 : en:Manchas Goes Savage
00:55:40.378 : en:The Gondola
01:00:48.269 : en:Help from Bellwether
01:03:37.855 : en:Cliffside Asylum
01:09:19.822 : en:We Cracked the Case
01:13:39.165 : en:Hopps Gives Up
01:17:07.372 : en:Hopps' Apology
01:21:52.366 : en:Doug's Laboratory
01:28:19.169 : en:The Natural History Museum
01:32:43.433 : en:Epilogue
01:36:12.141 : en:End Credits



   Похожие торренты   Торрент   Размер 
В этой теме нет новых непрочитанных сообщений. Зверополис / Zootopia (2016) BDRip HEVC 720p | Локализованная версия | Лицензия

58 | 6

2.52 ГБ

В этой теме нет новых непрочитанных сообщений. Зверополис / Zootopia (2016) BDRip 1080p HEVC | iTunes

534 | 15

1.99 ГБ

В этой теме нет новых непрочитанных сообщений. Зверополис / Zootopia (2016) BDRip 1080p HEVC от qusi555 | iTunes

1180 | 53

4.37 ГБ

В этой теме нет новых непрочитанных сообщений. Зверополис / Zootopia (2016) BDRip HEVC 1080p | Локализованная версия | Лицензия

115 | 21

5.02 ГБ

В этой теме нет новых непрочитанных сообщений. Зверополис / Zootopia (2016) BDRip 720p | Р

34 | 13

4.03 ГБ

В этой теме нет новых непрочитанных сообщений. Зверополис / Zootopia (2016) BDRip 720p | D | Line

190 | 12

3.42 ГБ

В этой теме нет новых непрочитанных сообщений. Зверополис / Zootopia (2016) BDRip 720p | D | Line

365 | 3

3.42 ГБ




Вы не можете начинать темы
Вы не можете отвечать на сообщения
Вы не можете редактировать свои сообщения
Вы не можете удалять свои сообщения
Вы не можете добавлять вложения

Перейти:  
Для Мосгорсуда, Роскомнадзора и рекламодателей: mosgorsud-torrent[собачка]yandex.ru
 Вход
ppkBB3cker v.2 © 2008-2014 @ PPK
[ Time : 0.054s | 18 Queries | GZIP : Off ]

cron