img image001 image001 image001 image001 image001 image001 image001 image001 image001 image001 image001 image001 image001 image001 image001 image001

Planets Sun Sun Sun
Статистика раздачи
Автор: Nickolas3434 | Размер: 2.81 ГБ | Добавлен: 22 янв 2018
Раздают: 13    Качают: 0
Скачать торрент
Скачать торрент
Описание торрента

СообщениеДобавлено: 22 янв 2018 

Информация о фильме
Наименование: Смерть на Аляске
Оригинальное наименование: Sweet Virginia
Произведено: Канада, США
Категория: триллер, драма
Режиссер постановщик: Джэми М. Дагг
В главных ролях: Джон Бернтал, Кристофер Эбботт, Имоджен Путс, Розмари ДеУитт, Джаред Абрахамсон, Одесса Янг, Дарси Лори, Джозеф Лайл Тейлор, Виктория Бидвелл
О фильме: Сэм, бывший чемпион по родео, сейчас ведёт тихую жизнь в богом забытом городке на Аляске, где держит скромный придорожный мотель. Элвуд - молодой человек, заехавший в его отель; между двумя мужчинами, имеющими, как выясняется, общие корни, завязывается дружба. Элвуд, однако, приехал не просто так, и имеет самое прямое отношение к шокирующему преступлению, которое недавно потрясло городок.

Файл
Качество: WEB-DLRip 720p
Видео данные: MKV, 1280x528 (2:40:1), 23.976 fps, 4000 Кбит/с
Аудио данные: AC3, 2 ch, 384 Кбит/с
Перевод: Любительский многоголосый (GreenРай Studio)
Продолжительность: 01:33:29
Над релизом работали:
Состав дикторов: Игорь Хрусталёв, Анастасия Гайдаржи, Тимур Бермудов
Руководитель проекта и координатор: Евгений Овчаренко
Организатор и координатор: Никита Марков
Пиар менеджер студии: Игорь Обухов
Техническая поддержка: Александр Методий
General
Unique ID : 248283884653388702747760219451673842755 (0xBAC9BC9FFDCB559E8F597658F7E89443)
Complete name : D:ВидеоSweet.Virginia.2017.P.WEB-DL.720p.GreenРай Studio.mkv
Format : Matroska
Format version : Version 4 / Version 2
File size : 2.81 GiB
Duration : 1h 33mn
Overall bit rate mode : Constant
Overall bit rate : 4 303 Kbps
Encoded date : UTC 2018-01-16 21:34:34
Writing application : mkvmerge v8.3.0 ('Over the Horizon') 64bit
Writing library : libebml v1.3.1 + libmatroska v1.4.2
DURATION : 01:33:38.400000000
NUMBER_OF_FRAMES : 175575
NUMBER_OF_BYTES : 269683200
_STATISTICS_WRITING_APP : mkvmerge v8.3.0 ('Over the Horizon') 64bit
_STATISTICS_WRITING_DATE_UT : 2018-01-16 21:34:34
_STATISTICS_TAGS : BPS DURATION NUMBER_OF_FRAMES NUMBER_OF_BYTES
Video
ID : 1
Format : AVC
Format/Info : Advanced Video Codec
Format profile : Main@L3.1
Format settings, CABAC : Yes
Format settings, ReFrames : 3 frames
Format settings, GOP : M=4, N=15
Codec ID : V_MPEG4/ISO/AVC
Duration : 1h 33mn
Bit rate mode : Constant
Bit rate : 4 000 Kbps
Width : 1 280 pixels
Height : 528 pixels
Display aspect ratio : 2.40:1
Frame rate mode : Constant
Frame rate : 23.976 fps
Standard : NTSC
Color space : YUV
Chroma subsampling : 4:2:0
Bit depth : 8 bits
Scan type : Progressive
Bits/(Pixel*Frame) : 0.247
Stream size : 2.51 GiB (89%)
Language : English
Default : Yes
Forced : No
Color range : Limited
Audio
ID : 2
Format : AC-3
Format/Info : Audio Coding 3
Mode extension : CM (complete main)
Format settings, Endianness : Big
Codec ID : A_AC3
Duration : 1h 33mn
Bit rate mode : Constant
Bit rate : 384 Kbps
Channel(s) : 2 channels
Channel positions : Front: L R
Sampling rate : 48.0 KHz
Compression mode : Lossy
Stream size : 257 MiB (9%)
Default : Yes
Forced : No

ВНИМАНИЕ! Присутствует реклама!

Релиз от:



   Похожие торренты   Торрент   Размер 
В этой теме нет новых непрочитанных сообщений. Смерть на Аляске / Sweet Virginia (2017) WEB-DLRip | L

15 | 1

1.15 ГБ

В этой теме нет новых непрочитанных сообщений. Смерть на Аляске (Sweet Virginia) WEB-DL 1080p | Sub

83 | 7

3.26 ГБ

В этой теме нет новых непрочитанных сообщений. Милая одинокая девушка / Sweet, Sweet Lonely Girl (2016) WEBRip 720p | GreenРай Studio

6 | 1

1.99 ГБ

В этой теме нет новых непрочитанных сообщений. Джи – нестандартная смерть. Смерть и пират / Dji. Death Sails (2014) WEB-DLRip

426 | 4

82.22 МБ

В этой теме нет новых непрочитанных сообщений. Да, Вирджиния / Yes, Virginia (2009) WEB-DL 720p

46 | 7

1.15 ГБ

В этой теме нет новых непрочитанных сообщений. Это – ваша смерть / This Is Your Death (2017) WEB-DLRip | L

647 | 54

1.37 ГБ

В этой теме нет новых непрочитанных сообщений. Волшебное королевство Щелкунчика / The Nutcracker Sweet (2015) WEB-DLRip 720p от MegaPeer | D

103 | 7

1.48 ГБ




Вы не можете начинать темы
Вы не можете отвечать на сообщения
Вы не можете редактировать свои сообщения
Вы не можете удалять свои сообщения
Вы не можете добавлять вложения

Перейти:  
 Вход
ppkBB3cker v.2 © 2008-2014 @ PPK
[ Time : 0.021s | 19 Queries | GZIP : Off ]

cron