img image001 image001 image001 image001 image001 image001 image001 image001 image001 image001 image001 image001 image001 image001 image001 image001

Planets Sun Sun Sun
Статистика раздачи
Автор: Nickolas3434 | Размер: 2.9 ГБ | Добавлен: 22 янв 2018
Раздают: 42    Качают: 1
Скачать торрент
Скачать торрент
Описание торрента

СообщениеДобавлено: 22 янв 2018 

Информация о фильме
Наименование: Конор МакГрегор: Печально известный
Оригинальное наименование: Conor McGregor: Notorious
Произведено: Ирландия
Категория: документальный
Режиссер постановщик: Гэвин Фитцджеральд
В главных ролях: Хосе Альдо, Ди Девлин, Нэйтан Диаз, Ариэль Хелвани, Джон Кавана, Артем Лобов, Конор МакГрегор, Катон Пендред, Оуэн Родди, Арнольд Шварценеггер
О фильме: Лента повествует о громком восхождении на Олимп ирландского бойца смешанных единоборств - Конора МакГрегора. Начинал паренёк в полнейшей бедноте. Он жил в мамином доме в гостевой комнате со своей девушкой. У него не было ни денег, ни влиятельных друзей - лишь талант и целеустремленность.
Теперь Конор получает огромные гонорары и живет на полную катушку. Однако головокружительные результаты пришли не сразу. Долгих четыре года он шел к заветной цели, творя историю собственными руками - без страха и сомнений.

Файл
Качество: BDRip 720p
Видео данные: MKV, 1280x536 (2:40:1), 23.976 fps, 4000 Кбит/с
Аудио данные: AC3, 2 ch, 640 Кбит/с
Перевод: Любительский многоголосый (GreenРай Studio)
Продолжительность: 01:30:47
Над релизом работали:
Состав дикторов: Дмитрий Кучеренко, Екатерина Костина, Тимур Бермудов
Руководитель проекта и координатор: Евгений Овчаренко
Организатор и координатор: Никита Марков
Пиар менеджер студии: Игорь Обухов
Техническая поддержка: Александр Методий
General
Unique ID : 230064763659603346678678218048534014233 (0xAD14DC9B85023CBFA7C1D5853138E919)
Complete name : D:ВидеоConor.Mcgregor.Notorious.2017.P.BDRip.720p.GreenРай Studio.mkv
Format : Matroska
Format version : Version 4 / Version 2
File size : 2.90 GiB
Duration : 1h 30mn
Overall bit rate mode : Constant
Overall bit rate : 4 569 Kbps
Encoded date : UTC 2018-01-16 20:56:17
Writing application : mkvmerge v8.3.0 ('Over the Horizon') 64bit
Writing library : libebml v1.3.1 + libmatroska v1.4.2
DURATION : 01:30:52.928000000
NUMBER_OF_FRAMES : 170404
NUMBER_OF_BYTES : 436234240
_STATISTICS_WRITING_APP : mkvmerge v8.3.0 ('Over the Horizon') 64bit
_STATISTICS_WRITING_DATE_UT : 2018-01-16 20:56:17
_STATISTICS_TAGS : BPS DURATION NUMBER_OF_FRAMES NUMBER_OF_BYTES
Video
ID : 1
Format : AVC
Format/Info : Advanced Video Codec
Format profile : Main@L3.1
Format settings, CABAC : Yes
Format settings, ReFrames : 3 frames
Codec ID : V_MPEG4/ISO/AVC
Duration : 1h 30mn
Bit rate mode : Constant
Bit rate : 4 000 Kbps
Width : 1 280 pixels
Height : 536 pixels
Display aspect ratio : 2.40:1
Frame rate mode : Constant
Frame rate : 23.976 fps
Standard : NTSC
Color space : YUV
Chroma subsampling : 4:2:0
Bit depth : 8 bits
Scan type : Progressive
Bits/(Pixel*Frame) : 0.243
Stream size : 2.44 GiB (84%)
Language : English
Default : Yes
Forced : No
Color range : Limited
Audio
ID : 2
Format : AC-3
Format/Info : Audio Coding 3
Mode extension : CM (complete main)
Format settings, Endianness : Big
Codec ID : A_AC3
Duration : 1h 30mn
Bit rate mode : Constant
Bit rate : 640 Kbps
Channel(s) : 2 channels
Channel positions : Front: L R
Sampling rate : 48.0 KHz
Compression mode : Lossy
Stream size : 416 MiB (14%)
Default : Yes
Forced : No

ВНИМАНИЕ! Присутствует реклама!

Релиз от:



   Похожие торренты   Торрент   Размер 
В этой теме нет новых непрочитанных сообщений. Конор МакГрегор: Печально известный / Conor McGregor: Notorious (2017) WEBRip 720p | L2

54 | 4

2.63 ГБ

В этой теме нет новых непрочитанных сообщений. Конор МакГрегор: Печально известный / Conor McGregor: Notorious (2017) HDRip | L

9 | 0

1.37 ГБ

В этой теме нет новых непрочитанных сообщений. Конор МакГрегор: Печально известный / Conor McGregor: Notorious (2017) WEBRip | L2

62 | 4

1.37 ГБ

В этой теме нет новых непрочитанных сообщений. Бокс. Флойд Мейвезер - Конор Макгрегор [26.08] (2017) WEBRip 720p

86 | 0

984 МБ

В этой теме нет новых непрочитанных сообщений. Бокс. Андеркарт - Флойд Мейвезер - Конор Макгрегор [26.08] (2017) HDTVRip 720p | 60 fps

34 | 6

8.05 ГБ

В этой теме нет новых непрочитанных сообщений. Бокс. Флойд Мейвезер - Конор Макгрегор [Первый канал] [26.08] (2017) HDTVRip 720p | 50 fps

104 | 1

2.29 ГБ

В этой теме нет новых непрочитанных сообщений. Бокс. Флойд Мейвезер - Конор Макгрегор [Первый канал] [26.08] (2017) HDTVRip 720p

608 | 5

1.69 ГБ




Вы не можете начинать темы
Вы не можете отвечать на сообщения
Вы не можете редактировать свои сообщения
Вы не можете удалять свои сообщения
Вы не можете добавлять вложения

Перейти:  
 Вход
ppkBB3cker v.2 © 2008-2014 @ PPK
[ Time : 0.030s | 17 Queries | GZIP : Off ]

cron