img image001 image001 image001 image001 image001 image001 image001 image001 image001 image001 image001 image001 image001 image001 image001 image001
Planets Sun Sun Sun
Статистика раздачи
Автор: Nickolas3434 | Размер: 2.85 ГБ | Добавлен: 22 янв 2018
Раздают: 11    Качают: 0
Скачать торрент
Скачать торрент
Описание торрента

СообщениеДобавлено: 22 янв 2018 

Информация о фильме
Наименование: Один доллар
Оригинальное наименование: 1 Buck
Произведено: США
Категория: триллер, драма
Режиссер постановщик: Фабьен Дафилс
В главных ролях: Джон Фриман, Кэти Райан, Уилл Грин, Ривер Фот, Даррен Кендрик, Питер Тахо, Кассандра Канаар, Линдсей Кастилло
О фильме: Перемещаясь из одного кармана в другой, от человека к человеку, однодолларовая купюра показывает жизнь разных людей в Луизиане.

Файл
Качество: BDRip 720p
Видео данные: MKV, 1280x568 (2.25:1), 23.976 fps, 4000 Кбит/с
Аудио данные: AC3, 2 ch, 640 Кбит/с
Перевод: Любительский многоголосый (GreenРай Studio)
Продолжительность: 01:29:12
Над релизом работали:
Состав дикторов: Дмитрий Кучеренко, Екатерина Костина, Тимур Бермудов
Руководитель проекта и координатор: Евгений Овчаренко
Организатор и координатор: Никита Марков
Пиар менеджер студии: Игорь Обухов
Техническая поддержка: Александр Методий
General
Unique ID : 206006922587162857373187758265776563817 (0x9AFB7D76F145866DB3A2B51D63956669)
Complete name : D:Видео1.Buck.2017.P.BDRip.720p.GreenРай Studio.mkv
Format : Matroska
Format version : Version 4 / Version 2
File size : 2.85 GiB
Duration : 1h 29mn
Overall bit rate mode : Constant
Overall bit rate : 4 572 Kbps
Encoded date : UTC 2018-01-16 18:44:05
Writing application : mkvmerge v8.3.0 ('Over the Horizon') 64bit
Writing library : libebml v1.3.1 + libmatroska v1.4.2
DURATION : 01:29:12.128000000
NUMBER_OF_FRAMES : 167254
NUMBER_OF_BYTES : 428170240
_STATISTICS_WRITING_APP : mkvmerge v8.3.0 ('Over the Horizon') 64bit
_STATISTICS_WRITING_DATE_UT : 2018-01-16 18:44:05
_STATISTICS_TAGS : BPS DURATION NUMBER_OF_FRAMES NUMBER_OF_BYTES
Video
ID : 1
Format : AVC
Format/Info : Advanced Video Codec
Format profile : Main@L3.1
Format settings, CABAC : Yes
Format settings, ReFrames : 3 frames
Format settings, GOP : M=4, N=15
Codec ID : V_MPEG4/ISO/AVC
Duration : 1h 29mn
Bit rate mode : Constant
Bit rate : 4 000 Kbps
Width : 1 280 pixels
Height : 568 pixels
Display aspect ratio : 2.25:1
Frame rate mode : Constant
Frame rate : 23.976 fps
Standard : NTSC
Color space : YUV
Chroma subsampling : 4:2:0
Bit depth : 8 bits
Scan type : Progressive
Bits/(Pixel*Frame) : 0.229
Stream size : 2.39 GiB (84%)
Language : English
Default : Yes
Forced : No
Color range : Limited
Audio
ID : 2
Format : AC-3
Format/Info : Audio Coding 3
Mode extension : CM (complete main)
Format settings, Endianness : Big
Codec ID : A_AC3
Duration : 1h 29mn
Bit rate mode : Constant
Bit rate : 640 Kbps
Channel(s) : 2 channels
Channel positions : Front: L R
Sampling rate : 48.0 KHz
Compression mode : Lossy
Stream size : 408 MiB (14%)
Default : Yes
Forced : No

ВНИМАНИЕ! Присутствует реклама!

Релиз от:



   Похожие торренты   Торрент   Размер 
В этой теме нет новых непрочитанных сообщений. Один доллар / 1 Buck (2017) HDRip | L

18 | 0

1.37 ГБ

В этой теме нет новых непрочитанных сообщений. Один доллар / One Buck (2017) HDRip | L

166 | 2

1.37 ГБ

В этой теме нет новых непрочитанных сообщений. Дядюшка Бак / Uncle Buck (1989) BDRip 720p от ivandubskoj | D, P, A

15 | 10

9.35 ГБ

В этой теме нет новых непрочитанных сообщений. Дядюшка Бак / Uncle Buck (1989) BDRip 720p от FREEISLAND

1 | 7

4.37 ГБ

В этой теме нет новых непрочитанных сообщений. Земля: Один потрясающий день / Earth: One Amazing Day (2017) BDRip 720p | Sub

176 | 18

6.29 ГБ

В этой теме нет новых непрочитанных сообщений. Ранчо Халява / Buck Wild (2013) WEB-DL 720p

217 | 88

3.21 ГБ

В этой теме нет новых непрочитанных сообщений. Знакомьтесь, Бак / Meet Buck (2010) HDTVRip 720p

0 | 3

67.82 МБ




Вы не можете начинать темы
Вы не можете отвечать на сообщения
Вы не можете редактировать свои сообщения
Вы не можете удалять свои сообщения
Вы не можете добавлять вложения

Перейти:  
Для Мосгорсуда, Роскомнадзора и рекламодателей: mosgorsud-torrent[собачка]yandex.ru
 Вход
ppkBB3cker v.2 © 2008-2014 @ PPK
[ Time : 0.071s | 17 Queries | GZIP : Off ]

cron