img image001 image001 image001 image001 image001 image001 image001 image001 image001 image001 image001 image001 image001 image001 image001
Planets Sun Sun Sun
Статистика раздачи
Автор: Nickolas3434 | Размер: 5.5 ГБ | Добавлен: 22 янв 2018
Раздают: 34    Качают: 8
Скачать торрент
Скачать торрент
Описание торрента

СообщениеДобавлено: 22 янв 2018 

Мы "В КОНТАКТЕ" =)


Год выхода: 2017
Страна: Великобритания
Жанр: семейный, биография, история
Продолжительность: 01:47:22
Перевод: Профессиональный (многоголосый, закадровый) [iTunes]
Субтитры: нет
Режиссер: Саймон Кёртис / Simon Curtis
В ролях: Донал Глисон, Марго Робби, Келли Макдоналд, Вики Пеппердин, Уилл Тилстон, Алекс Лоутер, Стивен Кэмпбелл, Мур, Ричард МакКейб, Джеральдин Сомервилль, Мосси Смит
Описание: Картина расскажет о взаимоотношениях между А. А. Милном и его сыном Кристофером Робином, чьи игрушки вдохновили писателя на создание волшебного мира повестей о Винни-Пухе.
Качество видео: BDRip 720p
Формат видео: MKV
Видео: AVC, 1280x692 (1.850), 23.976 fps, 6 832 Kbps (0.322 bit/pixel)
Аудио: AC-3, 48.0 KHz, 6 ch, 384 Kbps, CBR (Russian)
Релиз от:



Полное имя : D:ЗАГРУЗКИGoodbye.Christopher.Robin.2017_BDRip_[scarabey.org].mkv
Формат : Matroska
Версия формата : Version 4 / Version 2
Размер файла : 5,50 Гбайт
Продолжительность : 1 ч. 47 м.
Общий поток : 7362 Кбит/сек
Дата кодирования : UTC 2018-01-17 14:28:35
Программа кодирования : mkvmerge v6.1.0 ('Old Devil') built on Mar 4 2013 09:10:42
Библиотека кодирования : libebml v1.3.0 + libmatroska v1.4.0
Видео
Идентификатор : 1
Формат : AVC
Формат/Информация : Advanced Video Codec
Профиль формата : High@L4.1
Параметр CABAC формата : Да
Параметр ReFrames формата : 9 кадров
Идентификатор кодека : V_MPEG4/ISO/AVC
Продолжительность : 1 ч. 47 м.
Битрейт : 6832 Кбит/сек
Ширина : 1280 пикселей
Высота : 692 пикселя
Соотношение сторон : 1,85:1
Режим частоты кадров : Постоянный
Частота кадров : 23,976 (24000/1001) кадра/сек
Цветовое пространство : YUV
Субдискретизация насыщенности : 4:2:0
Битовая глубина : 8 бит
Тип развёртки : Прогрессивная
Бит/(Пиксели*Кадры) : 0.322
Размер потока : 5,11 Гбайт (93%)
Библиотека кодирования : x264 core 152 r2851kMod ba24899
Настройки программы : cabac=1 / ref=9 / deblock=1:-3:-3 / analyse=0x3:0x133 / me=umh / subme=10 / psy=1 / fade_compensate=0.00 / psy_rd=1.05:0.00 / mixed_ref=1 / me_range=24 / chroma_me=1 / trellis=2 / 8x8dct=1 / cqm=0 / deadzone=21,11 / fast_pskip=0 / chroma_qp_offset=-2 / threads=34 / lookahead_threads=5 / sliced_threads=0 / nr=0 / decimate=0 / interlaced=0 / bluray_compat=0 / constrained_intra=0 / bframes=8 / b_pyramid=2 / b_adapt=2 / b_bias=0 / direct=3 / weightb=1 / open_gop=0 / weightp=2 / keyint=250 / keyint_min=23 / scenecut=40 / intra_refresh=0 / rc_lookahead=60 / rc=crf / mbtree=0 / crf=16.0000 / qcomp=0.60 / qpmin=0 / qpmax=69 / qpstep=4 / vbv_maxrate=62500 / vbv_bufsize=78125 / crf_max=0.0 / nal_hrd=none / filler=0 / ip_ratio=1.30 / pb_ratio=1.20 / aq=3:0.80 / zones=144308,153941,crf=21
Язык : English
Default : Да
Forced : Нет
Цветовой диапазон : Limited
Коэффициенты матрицы : BT.709
Аудио
Идентификатор : 2
Формат : AC-3
Формат/Информация : Audio Coding 3
Расширение режима : CM (complete main)
Параметр Endianness формата : Big
Идентификатор кодека : A_AC3
Продолжительность : 1 ч. 47 м.
Вид битрейта : Постоянный
Битрейт : 384 Кбит/сек
Каналы : 6 каналов
Расположение каналов : Front: L C R, Side: L R, LFE
Частота : 48,0 КГц
Частота кадров : 31,250 кадров/сек (1536 spf)
Битовая глубина : 16 бит
Метод сжатия : С потерями
Размер потока : 294 Мбайт (5%)
Заголовок : Дубляж - iTunes
Язык : Russian
Default : Да
Forced : Нет
Меню
00:00:00.000 : en:00:00:00.000
00:04:03.952 : en:00:04:03.952
00:07:01.171 : en:00:07:01.171
00:10:32.632 : en:00:10:32.632
00:13:40.528 : en:00:13:40.528
00:16:48.591 : en:00:16:48.591
00:20:43.409 : en:00:20:43.409
00:25:44.793 : en:00:25:44.793
00:30:36.752 : en:00:30:36.752
00:35:25.582 : en:00:35:25.582
00:40:50.740 : en:00:40:50.740
00:48:22.108 : en:00:48:22.108
00:52:32.733 : en:00:52:32.733
00:57:53.595 : en:00:57:53.595
01:03:35.812 : en:01:03:35.812
01:07:38.513 : en:01:07:38.513
01:12:43.859 : en:01:12:43.859
01:18:55.731 : en:01:18:55.731
01:21:45.609 : en:01:21:45.609
01:25:16.653 : en:01:25:16.653
01:29:10.428 : en:01:29:10.428
01:32:27.917 : en:01:32:27.917
01:35:55.917 : en:01:35:55.917
01:41:03.266 : en:01:41:03.266



   Похожие торренты   Торрент   Размер 
В этой теме нет новых непрочитанных сообщений. Прощай, Кристофер Робин / Goodbye Christopher Robin (2017) BDRip 720p | iTunes

0 | 0

5.75 ГБ

В этой теме нет новых непрочитанных сообщений. Прощай, Кристофер Робин / Goodbye Christopher Robin (2017) WEB-DLRip от Scarabey | iTunes

289 | 19

1.45 ГБ

В этой теме нет новых непрочитанных сообщений. Прощай, Кристофер Робин / Goodbye Christopher Robin (2017) WEB-DLRip от Scarabey | iTunes

17 | 0

746.19 МБ

В этой теме нет новых непрочитанных сообщений. Прощай, Кристофер Робин / Goodbye Christopher Robin (2017) WEB-DLRip от Scarabey | iTunes

89 | 7

745.21 МБ

В этой теме нет новых непрочитанных сообщений. Прощай, Кристофер Робин / Goodbye Christopher Robin (2017) BDRip 720p от k.e.n & MegaPeer | iTunes

8 | 2

4.32 ГБ

В этой теме нет новых непрочитанных сообщений. Прощай, Кристофер Робин / Goodbye Christopher Robin (2017) BDRip-AVC от ExKinoRay | iTunes

14 | 1

742.5 МБ

В этой теме нет новых непрочитанных сообщений. Прощай, Кристофер Робин / Goodbye Christopher Robin (2017) BDRip 1080p | iTunes

0 | 0

10.03 ГБ




Вы не можете начинать темы
Вы не можете отвечать на сообщения
Вы не можете редактировать свои сообщения
Вы не можете удалять свои сообщения
Вы не можете добавлять вложения

Перейти:  
Для Мосгорсуда, Роскомнадзора и рекламодателей: mosgorsud-torrent[собачка]yandex.ru
 Вход
ppkBB3cker v.2 © 2008-2014 @ PPK
[ Time : 1.257s | 17 Queries | GZIP : Off ]

cron