img image001 image001 image001 image001 image001 image001 image001 image001 image001 image001 image001 image001 image001 image001 image001 image001

Planets Sun Sun Sun
Статистика раздачи
Автор: Nickolas3434 | Размер: 2.73 ГБ | Добавлен: 22 янв 2018
Раздают: 9    Качают: 0
Скачать торрент
Скачать торрент
Описание торрента

СообщениеДобавлено: 22 янв 2018 

Информация о фильме
Наименование: Ясновидец: Фильм
Оригинальное наименование: Psych: The Movie
Произведено: США
Категория: комедия, криминал, детектив
Режиссер постановщик: Стив Фрэнкс
В главных ролях: Джеймс Родэй, Дьюли Хилл, Тимоти Омандсон, Мэгги Лосон, Керстен Нельсон, Корбин Бернсен, Закари Левай, Курт Фуллер, Джимми Симпсон, Роберт ЛаСардо
О фильме: Детектив-ясновидец Шон Спенсер попадает в неудобные и порой опасные авантюры в связи с поисками старинного кольца его бабушки, без которого он не может жениться на своей девушке Джулиет. Какие тайны он обнаружит?

Файл
Качество: WEB-DLRip 720p
Видео данные: MKV, 1280x720 (16:9), 23.976 fps, 4000 Кбит/с
Аудио данные: AC3, 2 ch, 448 Кбит/с
Перевод: Любительский многоголосый (GreenРай Studio)
Продолжительность: 01:28:46
Над релизом работали:
Состав дикторов: Илья Кочетков, Анастасия Гайдаржи, Тимур Бермудов
Руководитель проекта и координатор: Евгений Овчаренко
Организатор и координатор: Никита Марков
Пиар менеджер студии: Игорь Обухов
Техническая поддержка: Александр Методий
General
Unique ID : 233446166042503391477113469765489315704 (0xAFA0189DD5A9C387A05C4DE35B70CF78)
Complete name : D:ВидеоPsych.The.Movie.2017.P.WEB-DL.720p.GreenРай Studio.mkv
Format : Matroska
Format version : Version 4 / Version 2
File size : 2.73 GiB
Duration : 1h 28mn
Overall bit rate mode : Constant
Overall bit rate : 4 403 Kbps
Encoded date : UTC 2018-01-19 14:35:18
Writing application : mkvmerge v8.3.0 ('Over the Horizon') 64bit
Writing library : libebml v1.3.1 + libmatroska v1.4.2
DURATION : 01:28:46.528000000
NUMBER_OF_FRAMES : 166454
NUMBER_OF_BYTES : 298285568
_STATISTICS_WRITING_APP : mkvmerge v8.3.0 ('Over the Horizon') 64bit
_STATISTICS_WRITING_DATE_UT : 2018-01-19 14:35:18
_STATISTICS_TAGS : BPS DURATION NUMBER_OF_FRAMES NUMBER_OF_BYTES
Video
ID : 1
Format : AVC
Format/Info : Advanced Video Codec
Format profile : Main@L3.2
Format settings, CABAC : Yes
Format settings, ReFrames : 3 frames
Codec ID : V_MPEG4/ISO/AVC
Duration : 1h 28mn
Bit rate mode : Constant
Bit rate : 4 000 Kbps
Width : 1 280 pixels
Height : 720 pixels
Display aspect ratio : 16:9
Frame rate mode : Constant
Frame rate : 23.976 fps
Standard : NTSC
Color space : YUV
Chroma subsampling : 4:2:0
Bit depth : 8 bits
Scan type : Progressive
Bits/(Pixel*Frame) : 0.181
Stream size : 2.40 GiB (88%)
Language : English
Default : Yes
Forced : No
Color range : Limited
Audio
ID : 2
Format : AC-3
Format/Info : Audio Coding 3
Mode extension : CM (complete main)
Format settings, Endianness : Big
Codec ID : A_AC3
Duration : 1h 28mn
Bit rate mode : Constant
Bit rate : 448 Kbps
Channel(s) : 2 channels
Channel positions : Front: L R
Sampling rate : 48.0 KHz
Compression mode : Lossy
Stream size : 284 MiB (10%)
Default : Yes
Forced : No

ВНИМАНИЕ! Присутствует реклама!

Релиз от:



   Похожие торренты   Торрент   Размер 
В этой теме нет новых непрочитанных сообщений. Ясновидец: Кино / Psych: The Movie (2017) WEB-DLRip | L

14 | 0

1.37 ГБ

В этой теме нет новых непрочитанных сообщений. Ясновидец / Psych [S06] (2011) WEB-DLRip | P2

57 | 4

6.25 ГБ

В этой теме нет новых непрочитанных сообщений. Ясновидец / Psych [S07] (2013) WEB-DLRip | NewStudio

70 | 46

8.61 ГБ

В этой теме нет новых непрочитанных сообщений. Ясновидец / Psych [S05] (2010) WEB-DLRip | NewStudio

55 | 32

6.54 ГБ

В этой теме нет новых непрочитанных сообщений. Ясновидец / Psych [S08] (2014) WEB-DLRip | NewStudio

137 | 223

5.37 ГБ

В этой теме нет новых непрочитанных сообщений. Ясновидец / Psych [08x01-05] (2014) WEB-DLRip | NewStudio

47 | 55

2.68 ГБ

В этой теме нет новых непрочитанных сообщений. Ясновидец / Psych [08x01-07] (2014) WEB-DLRip | NewStudio

78 | 100

3.76 ГБ




Вы не можете начинать темы
Вы не можете отвечать на сообщения
Вы не можете редактировать свои сообщения
Вы не можете удалять свои сообщения
Вы не можете добавлять вложения

Перейти:  
 Вход
ppkBB3cker v.2 © 2008-2014 @ PPK
[ Time : 0.033s | 18 Queries | GZIP : Off ]

cron