img image001 image001 image001 image001 image001 image001 image001 image001 image001 image001 image001 image001 image001 image001 image001 image001

Planets Sun Sun Sun
Статистика раздачи
Автор: Nickolas3434 | Размер: 1.94 ГБ | Добавлен: 22 янв 2018
Раздают: 33    Качают: 0
Скачать торрент
Скачать торрент
Описание торрента

СообщениеДобавлено: 22 янв 2018 

Информация о фильме
Название: Форсаж 8
Оригинальное название: The Fate of the Furious
Год выпуска: 2017
Жанр: боевик, триллер, криминал, приключения
Режиссер: Ф. Гэри Грей
В ролях: Вин Дизель, Дуэйн Джонсон, Джейсон Стэйтем, Мишель Родригес, Тайриз Гибсон, Лудакрис, Натали Эммануэль, Курт Рассел, Скотт Иствуд, Шарлиз Терон, Хелен Миррен, Эльза Патаки
О фильме:
Пристегните ремни - гонка продолжается. Гавана, Берлин, Нью-Йорк - для самой крутой команды в мире нет ничего невозможного, пока они вместе. Но когда на их пути окажется одна из самых красивых женщин на планете и по совместительству королева киберпреступности, дороги друзей разойдутся.

Страна: Китай, США, Япония
Студия: Universal Pictures
Продолжительность: 02:16:57
Перевод: Профессиональный (дублированный) Blu-ray CEE
Файл
Качество: WEB-DLRip-AVC | Open Matte
Формат: Matroska
Видео: 1024x576 at 23.976 fps, MPEG-4 AVC, ~1556 kbps
Аудио:48 kHz, AC3, 3/2 (L,C,R,l,r) + LFE ch, ~448 kbps
Субтитры: Russian (Captions, Full), English (Full, SDH)
General
Unique ID : 136516949698747439806844682945307136847 (0x66B435484720C62FB25CB8183B14D34F)
Complete name : F:FILMSФорсаж 8_2017_WEB_DLRIP-AVC.[-=DoMiNo=-].mkv
Format : Matroska
Format version : Version 4 / Version 2
File size : 1.94 GiB
Duration : 2 h 16 min
Overall bit rate : 2 045 kb/s
Movie name : Форсаж 8
Deion : Пристегните ремни - гонка продолжается. Гавана, Берлин, Нью-Йорк - для самой крутой команды в мире нет ничего невозможного, пока они вместе. Но когда на их пути окажется одна из самых красивых женщин на планете и по совместительству королева киберпреступности, дороги друзей разойдутся.
Writing application : XviD4PSP 7.0.439 DAILY
Writing library : Lavf57.71.100
ErrorDetectionType : Per level 1
Attachments : poster.jpg
COMPOSER : Брайан Тайлер
COUNTRY : Китай, США, Япония
DATE : 2017
DIRECTOR : Ф. Гэри Грей
GENRE : боевик, триллер, криминал, приключения
HD_VIDEO : 1
IMDB_RATING : 6.80
ITUNEXTC : mpaa|PG-13|300|
Language : und
MEDIA_TYPE : 9
ORIGINAL_TITLE : The Fate of the Furious
PRODUCER : Рикардо Дель Рио, Вин Дизель, Майкл Фоттрел, Финнур Йоханнссон, Клифф Леннинг, Аманда Коэн, Шэрон Лопез, Крис Морган, Нил Х. Мориц, Саманта Винсент
RATING : 6.182
WRITER : Крис Морган, Гэри Скотт Томпсон
Video
ID : 1
Format : AVC
Format/Info : Advanced Video Codec
Format profile : High@L4.1
Format settings : CABAC / 10 Ref Frames
Format settings, CABAC : Yes
Format settings, ReFrames : 10 frames
Codec ID : V_MPEG4/ISO/AVC
Duration : 2 h 16 min
Bit rate : 1 556 kb/s
Width : 1 024 pixels
Height : 576 pixels
Display aspect ratio : 16:9
Frame rate mode : Constant
Frame rate : 23.976 (24000/1001) FPS
Color space : YUV
Chroma subsampling : 4:2:0
Bit depth : 8 bits
Scan type : Progressive
Bits/(Pixel*Frame) : 0.110
Stream size : 1.48 GiB (76%)
Writing library : x264 core 155 r2893M b00bcaf
Encoding settings : cabac=1 / ref=10 / deblock=1:-3:-3 / analyse=0x3:0x133 / me=umh / subme=10 / psy=1 / psy_rd=1.00:0.05 / mixed_ref=1 / me_range=32 / chroma_me=1 / trellis=2 / 8x8dct=1 / cqm=0 / deadzone=21,11 / fast_pskip=1 / chroma_qp_offset=-3 / threads=6 / lookahead_threads=1 / sliced_threads=0 / nr=0 / decimate=1 / interlaced=0 / bluray_compat=0 / constrained_intra=0 / bframes=9 / b_pyramid=2 / b_adapt=2 / b_bias=0 / direct=3 / weightb=1 / open_gop=0 / weightp=2 / keyint=240 / keyint_min=24 / scenecut=40 / intra_refresh=0 / rc_lookahead=60 / rc=crf / mbtree=1 / crf=20.0 / qcomp=0.60 / qpmin=0 / qpmax=69 / qpstep=4 / ip_ratio=1.40 / aq=1:1.00
Language : English
Default : Yes
Forced : No
Color range : Limited
Color primaries : BT.709
Transfer characteristics : BT.709
Matrix coefficients : BT.709
Audio
ID : 2
Format : AC-3
Format/Info : Audio Coding 3
Codec ID : A_AC3
Duration : 2 h 16 min
Bit rate mode : Constant
Bit rate : 448 kb/s
Channel(s) : 6 channels
Channel positions : Front: L C R, Side: L R, LFE
Sampling rate : 48.0 kHz
Frame rate : 31.250 FPS (1536 SPF)
Bit depth : 16 bits
Compression mode : Lossy
Stream size : 436 MiB (22%)
Title : Дубляж - BluRay
Language : Russian
Service kind : Complete Main
Default : Yes
Forced : No
Text #1
ID : 3
Format : UTF-8
Codec ID : S_TEXT/UTF8
Codec ID/Info : UTF-8 Plain Text
Title : Captions, BluRay
Language : Russian
Default : Yes
Forced : No
Text #2
ID : 4
Format : UTF-8
Codec ID : S_TEXT/UTF8
Codec ID/Info : UTF-8 Plain Text
Title : Full, BluRay
Language : Russian
Default : No
Forced : No
Text #3
ID : 5
Format : UTF-8
Codec ID : S_TEXT/UTF8
Codec ID/Info : UTF-8 Plain Text
Title : Full, BluRay
Language : English
Default : No
Forced : No
Text #4
ID : 6
Format : UTF-8
Codec ID : S_TEXT/UTF8
Codec ID/Info : UTF-8 Plain Text
Title : Full, SDH, Amazon
Language : English
Default : No
Forced : No



   Похожие торренты   Торрент   Размер 
В этой теме нет новых непрочитанных сообщений. Форсаж 8 / The Fate of the Furious (2017) WEB-DLRip | D | Open Matte

41 | 1

2.18 ГБ

В этой теме нет новых непрочитанных сообщений. Форсаж 8 / The Fate of the Furious (2017) WEB-DL 1080p | D, A | Open Matte

0 | 0

14.09 ГБ

В этой теме нет новых непрочитанных сообщений. Форсаж 8 / The Fate of the Furious (2017) WEB-DL 1080p | D, A | Open Matte

0 | 0

14.09 ГБ

В этой теме нет новых непрочитанных сообщений. Форсаж 4 / Fast & Furious (2009) WEB-DLRip от Seven | Open Matte | D

15 | 3

1.46 ГБ

В этой теме нет новых непрочитанных сообщений. Форсаж 8 / The Fate of the Furious (2017) WEB-DLRip-AVC |

68 | 10

1.86 ГБ

В этой теме нет новых непрочитанных сообщений. Форсаж 8 / The Fate of the Furious (2017) WEB-DLRip-AVC | iTunes

96 | 12

748.51 МБ

В этой теме нет новых непрочитанных сообщений. Форсаж 8 / The Fate of the Furious (2017) WEB-DLRip от MegaPeer | iTunes

3827 | 77

1.47 ГБ




Вы не можете начинать темы
Вы не можете отвечать на сообщения
Вы не можете редактировать свои сообщения
Вы не можете удалять свои сообщения
Вы не можете добавлять вложения

Перейти:  
 Вход
ppkBB3cker v.2 © 2008-2014 @ PPK
[ Time : 0.029s | 18 Queries | GZIP : Off ]

cron