img image001 image001 image001 image001 image001 image001 image001 image001 image001 image001 image001 image001 image001 image001 image001 image001

Planets Sun Sun Sun
Статистика раздачи
Автор: Nickolas3434 | Размер: 745.92 МБ | Добавлен: 22 янв 2018
Раздают: 36    Качают: 0
Скачать торрент
Скачать торрент
Описание торрента

СообщениеДобавлено: 22 янв 2018 

Информация о фильме
Название: Меня зовут Троица
Оригинальное название: Lo chiamavano Trinita / They Call Me Trinity
Год выхода: 1970
Жанр: Комедия, вестерн
Режиссер: Энцо Барбони
В ролях: Теренс Хилл, Бад Спенсер, Фарли Грейнджер, Елена Педемонте, Стеффен Захариас, Дэн Стёрки, Гизела Хан, Эцио Марано, Лючано Росси
О фильме :
Вольный стрелок Троица, прозванный за умение быстро и метко стрелять «Правой рукой дьявола», приезжает в город, где натыкается на своего сводного брата Бамбино (по кличке «Левая рука дьявола»). Их мать — содержательница публичного дома, в прошлом — проститутка, поэтому братья не знают, кто были их отцы. Бамбино «работает» в городе шерифом (на самом-то деле он — грабитель, но, сломав настоящему шерифу ногу, он решил занять его место, чтобы на время залечь на дно) и Троица решает ему «помочь». Община мормонов, приняв их за реальных служителей закона, просит найти управу на главного местного землевладельца и его банду. Обе руки дьявола не позволят свершиться беззаконию. Точнее, они и сами-то не прочь совершить какое-нибудь преступление, однако Троица всерьез западает на двух мормонских цыпочек, так что всех негодяев ожидает кровавая баня...

Страна: Италия
Студия: West Film
Продолжительность: 01:53:26
Перевод: Профессиональный (многоголосый, закадровый)
Файл
Формат: MKV
Качество: BDRip-AVC (Blu-ray 1080p)
Видео: MPEG-4 AVC, 768x320, ~ 841 Кбит/с
Аудио: AAC-LC, 2 ch, ~ 76 Кбит/с
Субтитры: Русские (Forsed) - на расширенные сцены, русские (Full), английские
Общее
Уникальный идентификатор : 242796111172614231803203104502857031318 (0xB6A8D480B3480BF6A926B92FD81F5E96)
Полное имя : D:MOVIESLo.chiamavano.Trinita.1970.ExKinoRay.mkv
Формат : Matroska
Версия формата : Version 4 / Version 2
Размер файла : 746 Мбайт
Продолжительность : 1 ч. 53 м.
Общий поток : 919 Кбит/сек
Дата кодирования : UTC 2018-01-20 06:18:34
Программа кодирования : mkvmerge v15.0.0 ('Duel with the Devil') 64-bit
Библиотека кодирования : libebml v1.3.5 + libmatroska v1.4.5
Видео
Идентификатор : 1
Формат : AVC
Формат/Информация : Advanced Video Codec
Профиль формата : High@L4.1
Параметр CABAC формата : Да
Параметр RefFrames формата : 10 кадров
Идентификатор кодека : V_MPEG4/ISO/AVC
Продолжительность : 1 ч. 53 м.
Битрейт : 841 Кбит/сек
Ширина : 768 пикселей
Высота : 320 пикселей
Соотношение сторон : 2,40:1
Режим частоты кадров : Постоянный
Частота кадров : 23,976 (24000/1001) кадра/сек
Цветовое пространство : YUV
Субдискретизация насыщенности : 4:2:0
Битовая глубина : 8 бит
Тип развёртки : Прогрессивная
Бит/(Пиксели*Кадры) : 0.143
Размер потока : 682 Мбайт (91%)
Библиотека кодирования : x264 core 152 r2851kMod ba24899
Настройки программы : cabac=1 / ref=10 / deblock=1:-3:-2 / analyse=0x3:0x133 / me=umh / subme=11 / psy=1 / fade_compensate=0.00 / psy_rd=1.00:0.20 / mixed_ref=1 / me_range=32 / chroma_me=1 / trellis=2 / 8x8dct=1 / cqm=0 / deadzone=21,11 / fast_pskip=0 / chroma_qp_offset=-3 / threads=6 / lookahead_threads=1 / sliced_threads=0 / nr=0 / decimate=0 / interlaced=0 / bluray_compat=0 / constrained_intra=0 / bframes=10 / b_pyramid=2 / b_adapt=2 / b_bias=0 / direct=3 / weightb=1 / open_gop=0 / weightp=2 / keyint=240 / keyint_min=23 / scenecut=40 / intra_refresh=0 / rc_lookahead=40 / rc=2pass / mbtree=1 / bitrate=841 / ratetol=1.0 / qcomp=0.60 / qpmin=0 / qpmax=69 / qpstep=4 / cplxblur=20.0 / qblur=0.5 / vbv_maxrate=50000 / vbv_bufsize=62500 / nal_hrd=none / filler=0 / ip_ratio=1.40 / aq=3:1.00
Default : Да
Forced : Нет
Аудио
Идентификатор : 2
Формат : AAC
Формат/Информация : Advanced Audio Codec
Профиль формата : LC
Идентификатор кодека : A_AAC
Продолжительность : 1 ч. 53 м.
Битрейт : 76,0 Кбит/сек
Каналы : 2 канала
Расположение каналов : Front: L R
Частота : 48,0 КГц
Частота кадров : 46,875 кадров/сек (1024 SPF)
Метод сжатия : С потерями
Задержка видео : 9 мс.
Размер потока : 61,7 Мбайт (8%)
Язык : Russian
Default : Да
Forced : Нет
Текст #1
Идентификатор : 3
Формат : UTF-8
Идентификатор кодека : S_TEXT/UTF8
Идентификатор кодека/Информация : UTF-8 Plain Text
Продолжительность : 55 м. 19 с.
Битрейт : 6 бит/сек
ElementCount : 34
Размер потока : 2,54 Кбайт (0%)
Заголовок : Russian (Forsed)
Язык : Russian
Default : Да
Forced : Да
Текст #2
Идентификатор : 4
Формат : UTF-8
Идентификатор кодека : S_TEXT/UTF8
Идентификатор кодека/Информация : UTF-8 Plain Text
Продолжительность : 1 ч. 51 м.
Битрейт : 76 бит/сек
ElementCount : 846
Размер потока : 62,3 Кбайт (0%)
Заголовок : Russian (Full)
Язык : Russian
Default : Нет
Forced : Нет
Текст #3
Идентификатор : 5
Формат : UTF-8
Идентификатор кодека : S_TEXT/UTF8
Идентификатор кодека/Информация : UTF-8 Plain Text
Продолжительность : 1 ч. 51 м.
Битрейт : 35 бит/сек
ElementCount : 891
Размер потока : 29,2 Кбайт (0%)
Заголовок : English
Язык : English
Default : Нет
Forced : Нет
Меню
00:00:00.000 : en:Chapter 1
00:15:11.327 : en:Chapter 2
00:26:37.429 : en:Chapter 3
00:47:10.661 : en:Chapter 4
00:58:34.844 : en:Chapter 5
01:12:48.280 : en:Chapter 6
01:30:59.203 : en:Chapter 7
01:46:33.887 : en:Chapter 8



Релиз от:



   Похожие торренты   Торрент   Размер 
В этой теме нет новых непрочитанных сообщений. Меня зовут Троица / Lo chiamavano Trinita (1970) BDRip 720p | P, P2, A | Полная версия

13 | 10

7.05 ГБ

В этой теме нет новых непрочитанных сообщений. Меня зовут Троица / Lo chiamavano Trinita (1970) BDRip by msltel | P, P2, A | Полная версия

20 | 6

2.05 ГБ

В этой теме нет новых непрочитанных сообщений. Меня зовут Троица / Lo chiamavano Trinita (1970) BDRip 1080p by msltel | P, P2, A | Полная версия

3 | 3

11.42 ГБ

В этой теме нет новых непрочитанных сообщений. Меня зовут Троица / Lo chiamavano Trinita (1970) Blu-ray 1080p | P, P2, A | Полная версия

20 | 3

29.97 ГБ

В этой теме нет новых непрочитанных сообщений. Меня зовут Троица / Lo chiamavano Trinita / They Call Me Trinity (1970) BDRip-AVC от MediaClub | Полная версия

16 | 3

3.64 ГБ

В этой теме нет новых непрочитанных сообщений. Меня зовут Троица / Lo chiamavano Trinita (1970) Blu-ray Remux 1080p | P, P2, A | Полная версия

2 | 4

23.88 ГБ

В этой теме нет новых непрочитанных сообщений. Меня зовут Троица / Lo chiamavano Trinita (1970) BDRip от HELLYWOOD

62 | 36

2.82 ГБ




Вы не можете начинать темы
Вы не можете отвечать на сообщения
Вы не можете редактировать свои сообщения
Вы не можете удалять свои сообщения
Вы не можете добавлять вложения

Перейти:  
 Вход
ppkBB3cker v.2 © 2008-2014 @ PPK
[ Time : 0.048s | 20 Queries | GZIP : Off ]

cron