img image001 image001 image001 image001 image001 image001 image001 image001 image001 image001 image001 image001 image001 image001 image001 image001

Planets Sun Sun Sun
Статистика раздачи
Автор: Nickolas3434 | Размер: 1.73 ГБ | Добавлен: 22 янв 2018
Раздают: 13    Качают: 2
Скачать торрент
Скачать торрент
Описание торрента

СообщениеДобавлено: 22 янв 2018 

Информация о фильме
Название: Открытый дом
Оригинальное название: The Open House
Год выхода: 2018
Жанр: ужасы, триллер
Режиссер: Мэтт Энджел, Сюзанна Кут
В ролях: Дилан Миннетт, Пирси Далтон, Шариф Аткинс, Патрисия Бетун, Мэтт Энджел, Сьюзен Кут, Аарон Абрамс
Описание: Подросток Логан переезжает вместе с матерью Наоми в небольшой городок в живописном местечке вдали от шумных мегаполисов. Все идет как задумано, семья привыкает к изменениям и заводит друзей, но внезапно герои начинают замечать происходящие странности.

Страна: США
Продолжительность: 01:34:58
Перевод: Любительский (одноголосый закадровый) datynet
+ оригинал
Файл
Качество: WEBRip 720p
Видео: 1280x532 at 23.976 fps, x264@L4.1, 1980 kbps
Аудио 1: 48 kHz, AC3, 2 ch, 192 kbps | datynet
Аудио 2: 48 kHz, AC3, 6 ch, 384 kbps | Original
Субтитры: английские

Общее
Уникальный идентификатор : 7226057264745668714775193413751823763 (0x56FB021336393F287645B744A4E5D93)
Полное имя : The.Open.House.2018.720p.WEBRip.x264.mkv
Формат : Matroska
Версия формата : Version 4 / Version 2
Размер файла : 1,73 Гбайт
Продолжительность : 1 ч. 34 м.
Общий поток : 2604 Кбит/сек
Дата кодирования : UTC 2018-01-20 08:33:01
Программа кодирования : mkvmerge v20.0.0 ('I Am The Sun') 32-bit
Библиотека кодирования : libebml v1.3.5 + libmatroska v1.4.8
DURATION : 01:34:58.016000000
NUMBER_OF_FRAMES : 178063
NUMBER_OF_BYTES : 136752384
_STATISTICS_WRITING_APP : mkvmerge v20.0.0 ('I Am The Sun') 32-bit
_STATISTICS_WRITING_DATE_UTC : 2018-01-20 08:33:01
_STATISTICS_TAGS : BPS DURATION NUMBER_OF_FRAMES NUMBER_OF_BYTES
Видео
Идентификатор : 1
Формат : AVC
Формат/Информация : Advanced Video Codec
Профиль формата : High@L4.1
Параметр CABAC формата : Да
Параметр ReFrames формата : 5 кадров
Идентификатор кодека : V_MPEG4/ISO/AVC
Продолжительность : 1 ч. 34 м.
Битрейт : 1977 Кбит/сек
Ширина : 1280 пикселей
Высота : 532 пикселя
Соотношение сторон : 2,40:1
Режим частоты кадров : Постоянный
Частота кадров : 23,976 кадра/сек
Цветовое пространство : YUV
Субдискретизация насыщенности : 4:2:0
Битовая глубина : 8 бит
Тип развёртки : Прогрессивная
Бит/(Пиксели*Кадры) : 0.121
Размер потока : 1,31 Гбайт (76%)
Библиотека кодирования : x264 core 155 r2901 7d0ff22
Настройки программы : cabac=1 / ref=5 / deblock=1:-3:-3 / analyse=0x3:0x113 / me=umh / subme=8 / psy=1 / psy_rd=1.00:0.15 / mixed_ref=1 / me_range=16 / chroma_me=1 / trellis=2 / 8x8dct=1 / cqm=0 / deadzone=21,11 / fast_pskip=0 / chroma_qp_offset=-2 / threads=12 / lookahead_threads=2 / sliced_threads=0 / nr=0 / decimate=1 / interlaced=0 / bluray_compat=0 / constrained_intra=0 / bframes=3 / b_pyramid=2 / b_adapt=2 / b_bias=0 / direct=3 / weightb=1 / open_gop=0 / weightp=2 / keyint=240 / keyint_min=23 / scenecut=40 / intra_refresh=0 / rc_lookahead=50 / rc=crf / mbtree=1 / crf=18.0 / qcomp=0.60 / qpmin=0 / qpmax=69 / qpstep=4 / ip_ratio=1.40 / aq=3:0.80
Язык : English
Default : Да
Forced : Нет
DURATION : 01:34:58.068000000
NUMBER_OF_FRAMES : 136617
NUMBER_OF_BYTES : 1443376072
_STATISTICS_WRITING_APP : mkvmerge v20.0.0 ('I Am The Sun') 32-bit
_STATISTICS_WRITING_DATE_UTC : 2018-01-20 08:33:01
_STATISTICS_TAGS : BPS DURATION NUMBER_OF_FRAMES NUMBER_OF_BYTES
Аудио #1
Идентификатор : 2
Формат : AC-3
Формат/Информация : Audio Coding 3
Расширение режима : CM (complete main)
Параметр Endianness формата : Big
Идентификатор кодека : A_AC3
Продолжительность : 1 ч. 34 м.
Вид битрейта : Постоянный
Битрейт : 192 Кбит/сек
Каналы : 2 канала
Расположение каналов : Front: L R
Частота : 48,0 КГц
Битовая глубина : 16 бит
Метод сжатия : С потерями
Размер потока : 130 Мбайт (7%)
Язык : Russian
Default : Да
Forced : Нет
Аудио #2
Идентификатор : 3
Формат : AC-3
Формат/Информация : Audio Coding 3
Расширение режима : CM (complete main)
Параметр Endianness формата : Big
Идентификатор кодека : A_AC3
Продолжительность : 1 ч. 34 м.
Вид битрейта : Постоянный
Битрейт : 384 Кбит/сек
Каналы : 6 каналов
Расположение каналов : Front: L C R, Side: L R, LFE
Частота : 48,0 КГц
Битовая глубина : 16 бит
Метод сжатия : С потерями
Размер потока : 261 Мбайт (15%)
Язык : English
Default : Нет
Forced : Нет
Текст
Идентификатор : 4
Формат : UTF-8
Идентификатор кодека : S_TEXT/UTF8
Идентификатор кодека/Информация : UTF-8 Plain Text
Язык : English
Default : Нет
Forced : Нет



   Похожие торренты   Торрент   Размер 
В этой теме нет новых непрочитанных сообщений. Открытый дом / The Open House (2018) WEBRip от Dalemake | L

0 | 0

1.46 ГБ

В этой теме нет новых непрочитанных сообщений. Дом на продажу / The Open House (2018) WEBRip от R.G.Resident | NewStudio

212 | 14

1.45 ГБ

В этой теме нет новых непрочитанных сообщений. Дом на продажу / The Open House (2018) WEBRip 1080p | NewStudio

0 | 0

2.89 ГБ

В этой теме нет новых непрочитанных сообщений. VA - Open House Records Presents Vocal Sessions 2018 (2018) MP3

7 | 3

225.6 МБ

В этой теме нет новых непрочитанных сообщений. Открытый простор / Open Range (2003) DVDRip | D, P, A

88 | 5

2.15 ГБ

В этой теме нет новых непрочитанных сообщений. Открытый огонь / Open Fire (1994) DVDRip

93 | 23

1.46 ГБ

В этой теме нет новых непрочитанных сообщений. Открытый огонь / Open Fire (1994) DVDRip

41 | 6

1.37 ГБ




Вы не можете начинать темы
Вы не можете отвечать на сообщения
Вы не можете редактировать свои сообщения
Вы не можете удалять свои сообщения
Вы не можете добавлять вложения

Перейти:  
 Вход
ppkBB3cker v.2 © 2008-2014 @ PPK
[ Time : 0.026s | 19 Queries | GZIP : Off ]

cron