img image001 image001 image001 image001 image001 image001 image001 image001 image001 image001 image001 image001 image001 image001 image001 image001

Planets Sun Sun Sun
Статистика раздачи
Автор: Nickolas3434 | Размер: 3.22 ГБ | Добавлен: 22 янв 2018
Раздают: 27    Качают: 0
Скачать торрент
Скачать торрент
Описание торрента

СообщениеДобавлено: 22 янв 2018 

Информация о фильме
Наименование: Рендель
Оригинальное наименование: Rendel
Произведено: Финляндия
Жанр: фэнтези, боевик, криминал
Режиссер постановщик: Йессе Хаая
В главных ролях: Бьянка Брэди, Алина Томникова, Шила Шах, Йессе Хаая, Матти Оннисмаа, Теро Салениус, Кристофер Гуммерус, Джонни Виваш
О фильме: Ослепленный невероятной жаждой мести, главный герой, после смерти своей семьи, решает примерить плащ супергероя, чтобы отомстить всем, кто этого заслуживает.

Файл
Качество: WEB-DLRip 720p
Видео данные: MKV, 1280x536 (2:40:1), 24.000 fps, 4000 Кбит/с
Аудио данные: AC3, 2 ch, 384 Кбит/с
Перевод: Любительский многоголосый (GreenРай Studio)
Продолжительность: 01:46:21
Над релизом работали:
Состав дикторов: Илья Кочетков, Нана Саркисян, Тимур Бермудов
Руководитель проекта и координатор: Евгений Овчаренко
Организатор и координатор: Никита Марков
Пиар менеджер студии: Игорь Обухов
Техническая поддержка: Александр Методий
General
Unique ID : 185778855547870464550910481510601339627 (0x8BC3B4C288DFEF47B40FD4BDE6CC32EB)
Complete name : D:ВидеоRendel.2017.P.WEB-DL.720p.GreenРай Studio.mkv
Format : Matroska
Format version : Version 4 / Version 2
File size : 3.22 GiB
Duration : 1h 46mn
Overall bit rate mode : Constant
Overall bit rate : 4 332 Kbps
Encoded date : UTC 2018-01-20 11:37:51
Writing application : mkvmerge v8.3.0 ('Over the Horizon') 64bit
Writing library : libebml v1.3.1 + libmatroska v1.4.2
DURATION : 01:46:21.440000000
NUMBER_OF_FRAMES : 199420
NUMBER_OF_BYTES : 306309120
_STATISTICS_WRITING_APP : mkvmerge v8.3.0 ('Over the Horizon') 64bit
_STATISTICS_WRITING_DATE_UT : 2018-01-20 11:37:51
_STATISTICS_TAGS : BPS DURATION NUMBER_OF_FRAMES NUMBER_OF_BYTES
Video
ID : 1
Format : AVC
Format/Info : Advanced Video Codec
Format profile : Main@L3.1
Format settings, CABAC : Yes
Format settings, ReFrames : 3 frames
Format settings, GOP : M=4, N=15
Codec ID : V_MPEG4/ISO/AVC
Duration : 1h 46mn
Bit rate mode : Constant
Bit rate : 4 000 Kbps
Width : 1 280 pixels
Height : 536 pixels
Display aspect ratio : 2.40:1
Frame rate mode : Constant
Frame rate : 24.000 fps
Standard : NTSC
Color space : YUV
Chroma subsampling : 4:2:0
Bit depth : 8 bits
Scan type : Progressive
Bits/(Pixel*Frame) : 0.243
Stream size : 2.87 GiB (89%)
Language : English
Default : Yes
Forced : No
Color range : Limited
Audio
ID : 2
Format : AC-3
Format/Info : Audio Coding 3
Mode extension : CM (complete main)
Format settings, Endianness : Big
Codec ID : A_AC3
Duration : 1h 46mn
Bit rate mode : Constant
Bit rate : 384 Kbps
Channel(s) : 2 channels
Channel positions : Front: L R
Sampling rate : 48.0 KHz
Compression mode : Lossy
Stream size : 292 MiB (9%)
Default : Yes
Forced : No

ВНИМАНИЕ! Присутствует реклама!

Релиз от:



   Похожие торренты   Торрент   Размер 
В этой теме нет новых непрочитанных сообщений. Рендель / Rendel (2017) WEB-DLRip | L

148 | 2

1.37 ГБ

В этой теме нет новых непрочитанных сообщений. Снукер. Чемпионат мира 2017. Шеффилд (Англия). День 17 [01.05] (2017) WEB-DLRip 720p

0 | 0

14.24 ГБ

В этой теме нет новых непрочитанных сообщений. Снукер. Чемпионат мира 2017. Шеффилд (Англия). День 14 [28.04] (2017) WEB-DLRip 720p

0 | 0

20.54 ГБ

В этой теме нет новых непрочитанных сообщений. Снукер. Чемпионат мира 2017. Шеффилд (Англия). День 15 [29.04] (2017) WEB-DLRip 720p

0 | 0

13.05 ГБ

В этой теме нет новых непрочитанных сообщений. Снукер. Чемпионат мира 2017. Шеффилд (Англия). День 16 [30.04] (2017) WEB-DLRip 720p

0 | 0

12.98 ГБ

В этой теме нет новых непрочитанных сообщений. Мгла / The Mist [01x01-03 из 10] (2017) WEB-DLRip 720p, WEBRip 720p | IdeaFilm

25 | 16

3.97 ГБ

В этой теме нет новых непрочитанных сообщений. Полдарк / Poldark [S01-03] (2015-2017) WEB-DLRip 720p, HDTVRip 720p | BaibaKo

19 | 24

21.06 ГБ




Вы не можете начинать темы
Вы не можете отвечать на сообщения
Вы не можете редактировать свои сообщения
Вы не можете удалять свои сообщения
Вы не можете добавлять вложения

Перейти:  
 Вход
ppkBB3cker v.2 © 2008-2014 @ PPK
[ Time : 0.036s | 20 Queries | GZIP : Off ]

cron