img image001 image001 image001 image001 image001 image001 image001 image001 image001 image001 image001 image001 image001 image001 image001
Planets Sun Sun Sun
Статистика раздачи
Автор: Nickolas3434 | Размер: 7.55 ГБ | Добавлен: 22 янв 2018
Раздают: 0    Качают: 0
Скачать торрент
Скачать торрент
Описание торрента

СообщениеДобавлено: 22 янв 2018 




Анонсы 1080p от qqss44



Информация о фильме
Название: Геошторм
Оригинальное название: Geostorm
Год выпуска: 2017
Жанр: Фантастика, боевик, триллер
Режиссер: Дин Девлин, Пол Гуйо
В ролях: Джерард Батлер, Джим Стёрджесс, Эбби Корниш, Александра Мария Лара, Дэниэл Ву, Эухенио Дербес, Амр Вакед, Эдеперо Одуйе, Энди Гарсиа, Эд Харрис, Роберт Шиэн, Ричард Шифф, Мэр Уиннингхэм, Зази Битц, Талита Бейтман, Даниэлла Гарсиа-Лоридо, Ричи Монтгомери, Билли Слотер, Грегори Алан Уильямс, Дэвид Дженсен, Дерек Робертс, Нэйтан Мур, Катрин Эштон, Рэндолл Ньюсом, Дуглас М. Гриффин
О фильме:
После беспрецедентной серии стихийных бедствий, обрушившихся на нашу планету, лидеры мировых держав объединили усилия, чтобы создать разветвленную сеть орбитальных спутников по контролю над климатом для предотвращения природных катаклизмов. Но что-то пошло не так — система, выстроенная для защиты Земли, теперь угрожает ей. Начинается гонка наперегонки со временем, в которой надо успеть обнаружить реальную угрозу до того, как всемирный Геошторм сотрёт с лица Земли всё живое.

Страна: США
Студия: Warner Bros., Electric Entertainment, Jerry Bruckheimer Films, Skydance Media
Продолжительность: 01:49:07
Перевод: Дублированный | iTunes
Файл
Формат: MKV, BDRip 1080p
Видео: MPEG-4 AVC, 9500 Кбит/с, 1920x800
Aудио#1: [RUS] AC3 | 48 KHz | 5.1 (Front: L С R Side: L R) + LFE | ~384 kbps
Субтитры: русские (форсированные и полные)
Релиз от:


Общее
Уникальный идентификатор : 247186842794907444576877788613468600738 (0xB9F674490DFC7ED3B8F9EC7A172DB9A2)
Полное имя : H:Geostorm.(2017).BDRip.1080p.MegaPeer.(qqss44).mkv
Формат : Matroska
Версия формата : Version 2
Размер файла : 7,55 Гбайт
Продолжительность : 1 ч. 49 м.
Общий поток : 9906 Кбит/сек
Название фильма : Geostorm.(2017).BDRip.1080p.MegaPeer.(qqss44)
Дата кодирования : UTC 2018-01-21 10:22:01
Программа кодирования : mkvmerge v5.8.0 ('No Sleep / Pillow') built on Sep 2 2012 15:37:04
Библиотека кодирования : libebml v1.2.3 + libmatroska v1.3.0
Видео
Идентификатор : 1
Формат : AVC
Формат/Информация : Advanced Video Codec
Профиль формата : High@L4.1
Параметр CABAC формата : Да
Параметр ReFrames формата : 5 кадров
Идентификатор кодека : V_MPEG4/ISO/AVC
Продолжительность : 1 ч. 49 м.
Битрейт : 9525 Кбит/сек
Ширина : 1920 пикселей
Высота : 800 пикселей
Соотношение сторон : 2,40:1
Режим частоты кадров : Постоянный
Частота кадров : 23,976 (24000/1001) кадра/сек
Цветовое пространство : YUV
Субдискретизация насыщенности : 4:2:0
Битовая глубина : 8 бит
Тип развёртки : Прогрессивная
Бит/(Пиксели*Кадры) : 0.259
Размер потока : 7,11 Гбайт (94%)
Библиотека кодирования : x264 core 152 r2851kMod ba24899
Настройки программы : cabac=1 / ref=5 / deblock=1:-3:-3 / analyse=0x3:0x113 / me=umh / subme=11 / psy=1 / fade_compensate=0.00 / psy_rd=1.00:0.00 / mixed_ref=1 / me_range=32 / chroma_me=1 / trellis=2 / 8x8dct=1 / cqm=0 / deadzone=21,11 / fast_pskip=0 / chroma_qp_offset=-2 / threads=12 / lookahead_threads=2 / sliced_threads=0 / nr=0 / decimate=0 / interlaced=0 / bluray_compat=0 / constrained_intra=0 / bframes=8 / b_pyramid=2 / b_adapt=2 / b_bias=0 / direct=3 / weightb=1 / open_gop=0 / weightp=2 / keyint=240 / keyint_min=23 / scenecut=40 / intra_refresh=0 / rc_lookahead=40 / rc=2pass / mbtree=0 / bitrate=9525 / ratetol=1.0 / qcomp=0.65 / qpmin=0 / qpmax=69 / qpstep=4 / cplxblur=20.0 / qblur=0.5 / vbv_maxrate=50000 / vbv_bufsize=62500 / nal_hrd=none / filler=0 / ip_ratio=1.40 / pb_ratio=1.30 / aq=3:0.70
Язык : English
Default : Да
Forced : Нет
Аудио
Идентификатор : 2
Формат : AC-3
Формат/Информация : Audio Coding 3
Расширение режима : CM (complete main)
Параметр Endianness формата : Big
Идентификатор кодека : A_AC3
Продолжительность : 1 ч. 49 м.
Вид битрейта : Постоянный
Битрейт : 384 Кбит/сек
Каналы : 6 каналов
Расположение каналов : Front: L C R, Side: L R, LFE
Частота : 48,0 КГц
Частота кадров : 31,250 кадров/сек (1536 spf)
Метод сжатия : С потерями
Размер потока : 300 Мбайт (4%)
Язык : Russian
Default : Да
Forced : Нет
Текст #1
Идентификатор : 3
Формат : UTF-8
Идентификатор кодека : S_TEXT/UTF8
Идентификатор кодека/Информация : UTF-8 Plain Text
Заголовок : FORCED
Язык : Russian
Default : Да
Forced : Нет
Текст #2
Идентификатор : 4
Формат : UTF-8
Идентификатор кодека : S_TEXT/UTF8
Идентификатор кодека/Информация : UTF-8 Plain Text
Заголовок : FULL
Язык : Russian
Default : Нет
Forced : Нет
Меню
00:00:00.000 : en:00:00:00.000
00:08:33.972 : en:00:08:33.972
00:16:52.053 : en:00:16:52.053
00:27:20.556 : en:00:27:20.556
00:39:13.184 : en:00:39:13.184
00:48:47.925 : en:00:48:47.925
01:00:24.746 : en:01:00:24.746
01:11:01.090 : en:01:11:01.090
01:19:14.959 : en:01:19:14.959
01:30:08.570 : en:01:30:08.570
01:40:25.728 : en:01:40:25.728



   Похожие торренты   Торрент   Размер 
В этой теме нет новых непрочитанных сообщений. Геошторм / Geostorm (2017) HDRip от MegaPeer | iTunes

217 | 7

746.52 МБ

В этой теме нет новых непрочитанных сообщений. Геошторм / Geostorm (2017) HDRip от MegaPeer | iTunes

609 | 25

1.41 ГБ

В этой теме нет новых непрочитанных сообщений. Геошторм / Geostorm (2017) HDRip от MegaPeer | iTunes

0 | 0

1.46 ГБ

В этой теме нет новых непрочитанных сообщений. Геошторм / Geostorm (2017) BDRip 1080p от HELLYWOOD | iTunes

306 | 30

9.56 ГБ

В этой теме нет новых непрочитанных сообщений. Геошторм / Geostorm (2017) BDRip 1080p от ExKinoRay | D, L | iTunes

0 | 0

8.43 ГБ

В этой теме нет новых непрочитанных сообщений. Геошторм / Geostorm (2017) BDRip 1080p от Ash61 | 3D-Video | halfOU | iTunes

0 | 0

13.88 ГБ

В этой теме нет новых непрочитанных сообщений. Геошторм / Geostorm (2017) BDRemux 1080p от ExKinoRay | D, L | iTunes

0 | 0

26.09 ГБ




Вы не можете начинать темы
Вы не можете отвечать на сообщения
Вы не можете редактировать свои сообщения
Вы не можете удалять свои сообщения
Вы не можете добавлять вложения

Перейти:  
Для Мосгорсуда, Роскомнадзора и рекламодателей: mosgorsud-torrent[собачка]yandex.ru
 Вход
ppkBB3cker v.2 © 2008-2014 @ PPK
[ Time : 0.064s | 18 Queries | GZIP : Off ]

cron