img image001 image001 image001 image001 image001 image001 image001 image001 image001 image001 image001 image001 image001 image001 image001 image001

Planets Sun Sun Sun
Статистика раздачи
Автор: Nickolas3434 | Размер: 1.54 ГБ | Добавлен: 22 янв 2018
Раздают: 8    Качают: 0
Скачать торрент
Скачать торрент
Описание торрента

СообщениеДобавлено: 22 янв 2018 

Информация о фильме
Название: Пила 8
Оригинальное название: Jigsaw
Год выпуска: 2017
Жанр: Ужасы, триллер, криминал, детектив
Режиссер: Майкл Спириг, Питер Спириг
В ролях: Мэтт Пассмор, Тобин Белл, Каллум Кит Ренни, Ханна Андерсон, Кле Беннетт, Лора Вандервурт, Пол Браунштейн, Мандела Ван Пиблз, Бриттани Аллен, Джозиа Блэк, Эдвард Раттл, Майкл Бойсверт, Сэм Коулес, Трой Фельдман, Шаквен Льюис
Описание:
Примерно десять лет назад вся Америка пребывала в шоке от ужасающих преступлений Джона Крамера, известного под псевдонимом «Пила». Его жесткость и кровожадность не шли в сравнение ни с одним преступником, о которых знала страна. Этот безумец соорудил себе особняк с многочисленными и разнообразными орудиями пыток. Здесь можно было увидеть все, чем можно было устроить мучения и страдания человеку: ножи, цепи, лезвия. Среди его жертв разные люди разных возрастов. Многие просили пощадить их, но это никогда не происходило. Однажды прогуливаясь по парку, кто-то натыкается на труп мужчины с признаками насильственной смерти. Истерзанный труп решили вскрыть, обнаружилось, что этого человека долго и жестоко пытали. Внутри его тела эксперты нашли маленькую флешку, записи в которой говорила о том, что снова начинается кровавая война. Почерк убийства напоминает рук злодея Крамера, но ведь его уже нет в живых долгие годы. Неужели объявился новый психопат, который принял эстафету у безжалостного маньяка?


Страна: США
Студия: Serendipity Productions, Twisted Pictures, A Bigger Boat
Продолжительность: 01:31:57
Перевод: Дублированный | iTunes
Файл
Контейнер: MKV
Качество: BDRip-AVC
Видео: AVC, 1024x428 (2.40:1), 23.976 fps, 1574 Kbps, 0.150 bit/pixel
Аудио 1: AC-3, 48.0 KHz, 5.1 ch, 384 Kbps, CBR (Russian)
Аудио 2: AC-3, 48.0 KHz, 5.1 ch, 448 Kbps, CBR (ENG)
Субтитры: Английские
General
Unique ID : 249584647641844990403636692187201116851 (0xBBC441311694E9D0A98B0486A68F9AB3)
Complete name : D:Jigsaw.2017.BDRip.AVC.ExKinoRay.mkv
Format : Matroska
Format version : Version 2
File size : 1.54 GiB
Duration : 1 h 31 min
Overall bit rate : 2 399 kb/s
Movie name : Jigsaw (2017) from ExKinoRay
Encoded date : UTC 2018-01-21 14:24:31
Writing application : mkvmerge v5.6.0 ('Kenya Kane') built on May 27 2012 16:44:04
Writing library : libebml v1.2.3 + libmatroska v1.3.0
Video
ID : 1
Format : AVC
Format/Info : Advanced Video Codec
Format profile : High@L4.1
Format settings, CABAC : Yes
Format settings, ReFrames : 12 frames
Codec ID : V_MPEG4/ISO/AVC
Duration : 1 h 31 min
Bit rate : 1 574 kb/s
Width : 1 024 pixels
Height : 428 pixels
Display aspect ratio : 2.40:1
Frame rate mode : Constant
Frame rate : 23.976 (23976/1000) FPS
Color space : YUV
Chroma subsampling : 4:2:0
Bit depth : 8 bits
Scan type : Progressive
Bits/(Pixel*Frame) : 0.150
Stream size : 999 MiB (63%)
Title : Enigma
Writing library : x264 core 152 r2851 ba24899
Encoding settings : cabac=1 / ref=12 / deblock=1:-3:-3 / analyse=0x3:0x133 / me=umh / subme=11 / psy=1 / psy_rd=1.00:0.05 / mixed_ref=1 / me_range=32 / chroma_me=1 / trellis=2 / 8x8dct=1 / cqm=0 / deadzone=21,11 / fast_pskip=0 / chroma_qp_offset=-3 / threads=12 / lookahead_threads=3 / sliced_threads=0 / nr=0 / decimate=0 / interlaced=0 / bluray_compat=0 / constrained_intra=0 / bframes=14 / b_pyramid=2 / b_adapt=2 / b_bias=0 / direct=3 / weightb=1 / open_gop=0 / weightp=2 / keyint=240 / keyint_min=23 / scenecut=40 / intra_refresh=0 / rc_lookahead=40 / rc=2pass / mbtree=0 / bitrate=1574 / ratetol=1.0 / qcomp=0.60 / qpmin=0 / qpmax=51 / qpstep=4 / cplxblur=20.0 / qblur=0.5 / vbv_maxrate=50000 / vbv_bufsize=62500 / nal_hrd=none / filler=0 / ip_ratio=1.40 / pb_ratio=1.30 / aq=3:0.90
Language : English
Default : Yes
Forced : No
Color range : Limited
Color primaries : BT.709
Transfer characteristics : BT.709
Matrix coefficients : BT.709
Audio #1
ID : 2
Format : AC-3
Format/Info : Audio Coding 3
Mode extension : CM (complete main)
Format settings, Endianness : Big
Codec ID : A_AC3
Duration : 1 h 31 min
Bit rate mode : Constant
Bit rate : 384 kb/s
Channel(s) : 6 channels
Channel positions : Front: L C R, Side: L R, LFE
Sampling rate : 48.0 kHz
Frame rate : 31.250 FPS (1536 spf)
Compression mode : Lossy
Stream size : 253 MiB (16%)
Title : Dub (iTunes)
Language : Russian
Default : Yes
Forced : No
Audio #2
ID : 3
Format : AC-3
Format/Info : Audio Coding 3
Mode extension : CM (complete main)
Format settings, Endianness : Big
Codec ID : A_AC3
Duration : 1 h 31 min
Bit rate mode : Constant
Bit rate : 448 kb/s
Channel(s) : 6 channels
Channel positions : Front: L C R, Side: L R, LFE
Sampling rate : 48.0 kHz
Frame rate : 31.250 FPS (1536 spf)
Compression mode : Lossy
Stream size : 295 MiB (19%)
Language : English
Default : No
Forced : No
Text
ID : 4
Format : UTF-8
Codec ID : S_TEXT/UTF8
Codec ID/Info : UTF-8 Plain Text
Language : English
Default : No
Forced : No
Menu
00:00:00.000 : en:00:00:00.000
00:03:46.977 : en:00:03:46.977
00:10:39.848 : en:00:10:39.848
00:14:09.974 : en:00:14:09.974
00:22:39.608 : en:00:22:39.608
00:29:03.408 : en:00:29:03.408
00:35:18.533 : en:00:35:18.533
00:40:38.519 : en:00:40:38.519
00:43:09.212 : en:00:43:09.212
00:46:12.353 : en:00:46:12.353
00:52:00.743 : en:00:52:00.743
00:56:34.224 : en:00:56:34.224
01:04:13.850 : en:01:04:13.850
01:09:17.570 : en:01:09:17.570
01:13:33.284 : en:01:13:33.284
01:23:31.089 : en:01:23:31.089


Релиз от:
Автор релиза:



   Похожие торренты   Торрент   Размер 
В этой теме нет новых непрочитанных сообщений. Пила 8 / Jigsaw (2017) BDRip от ExKinoRay | iTunes

25 | 0

1.42 ГБ

В этой теме нет новых непрочитанных сообщений. Пила 8 / Jigsaw (2017) BDRip 720p от ExKinoRay | iTunes

0 | 0

4.07 ГБ

В этой теме нет новых непрочитанных сообщений. Пила 8 / Jigsaw (2017) BDRip 1080p от ExKinoRay | iTunes

0 | 0

7.86 ГБ

В этой теме нет новых непрочитанных сообщений. Пила 8 / Jigsaw (2017) HDRip-AVC от ExKinoRay | iTunes

76 | 2

744.85 МБ

В этой теме нет новых непрочитанных сообщений. Пила 8 / Jigsaw (2017) BDRemux 1080p от ExKinoRay | iTunes

0 | 0

25.1 ГБ

В этой теме нет новых непрочитанных сообщений. Пила 8 / Jigsaw (2017) BDRip-AVC от HELLYWOOD | iTunes

71 | 1

1.42 ГБ

В этой теме нет новых непрочитанных сообщений. Пила 8 / Jigsaw (2017) BDRip-AVC от Dalemake | D | iTunes

0 | 0

2.2 ГБ




Вы не можете начинать темы
Вы не можете отвечать на сообщения
Вы не можете редактировать свои сообщения
Вы не можете удалять свои сообщения
Вы не можете добавлять вложения

Перейти:  
 Вход
ppkBB3cker v.2 © 2008-2014 @ PPK
[ Time : 0.043s | 20 Queries | GZIP : Off ]

cron