img image001 image001 image001 image001 image001 image001 image001 image001 image001 image001 image001 image001 image001 image001 image001 image001

Planets Sun Sun Sun
Статистика раздачи
Автор: Снежана | Размер: 1.86 ГБ | Добавлен: 15 фев 2018
Раздают: 0    Качают: 0
Скачать торрент
Скачать торрент
Описание торрента

СообщениеДобавлено: 15 фев 2018 

Горные лыжи. Кубок мира 2017–2018. 3-й Этап. Киллингтон (США). Женщины. Слалом


Перевод: Русский, cубтитры: отсутствуют
Формат: HDTV 1080i, MKV, H.264, AAC
Страна: США
Вид спорта: Горные лыжи
Продолжительность: 01:10:01
Дата эфира: 26.11.2017

Комментатор: Владимир Андреев

Описание: 26 ноября 2017 года
Кубок мира по горнолыжному спорту сезона 2017-2018 года.
3-й Этап. Киллингтон (США).
Женщины. Слалом


Видео: 1920x1080 (16:9), 25,000 fps, AVC (х264), High@L4, 3685 Кбит/сек, ~ 0.071 bit/pixel
Аудио: 44.1 kHz, AAC, 2/0 (L,R), ~126.00 kbps avg

Общее
Уникальный идентификатор : 194806179193976609151955464257156505737 (0x928E4E2DC9247254860823A3CA016089)
Полное имя : F:\SPORT\Горные лыжи\FIS Alpine Skiing World Cup 17-18.3. Killington (USA). Ladies\(26.11.2017)_FIS Alpine Ski 3st. WC 2017-2018.Killington (USA). Ladies Slalom.mkv
Формат : Matroska
Версия формата : Version 4 / Version 2
Размер файла : 1,86 Гбайт
Продолжительность : 1 ч. 10 м.
Общий поток : 3813 Кбит/сек
Дата кодирования : UTC 2017-11-29 04:19:21
Программа кодирования : mkvmerge v18.0.0 ('Apricity') 32-bit
Библиотека кодирования : libebml v1.3.5 + libmatroska v1.4.8

Видео
Идентификатор : 1
Формат : AVC
Формат/Информация : Advanced Video Codec
Профиль формата : High@L4
Настройки формата : CABAC / 2 Ref Frames
Параметр CABAC формата : Да
Параметр RefFrames формата : 2 кадра
Идентификатор кодека : V_MPEG4/ISO/AVC
Продолжительность : 1 ч. 10 м.
Битрейт : 3685 Кбит/сек
Ширина : 1920 пикселей
Высота : 1080 пикселей
Соотношение сторон : 16:9
Режим частоты кадров : Постоянный
Частота кадров : 25,000 кадров/сек
Цветовое пространство : YUV
Субдискретизация насыщенности : 4:2:0
Битовая глубина : 8 бит
Тип развёртки : Прогрессивная
Бит/(Пиксели*Кадры) : 0.071
Размер потока : 1,80 Гбайт (97%)
Default : Да
Forced : Нет
Цветовой диапазон : Limited
Основные цвета : BT.709
Характеристики трансфера : BT.709
Коэффициенты матрицы : BT.709

Аудио
Идентификатор : 2
Формат : AAC
Формат/Информация : Advanced Audio Codec
Профиль формата : LC
Идентификатор кодека : A_AAC-2
Продолжительность : 1 ч. 10 м.
Битрейт : 126 Кбит/сек
Каналы : 2 канала
Расположение каналов : Front: L R
Частота : 44,1 КГц
Частота кадров : 43,066 кадра/сек (1024 SPF)
Метод сжатия : С потерями
Размер потока : 62,9 Мбайт (3%)
Язык : Russian
Default : Да
Forced : Нет









   Похожие торренты   Торрент   Размер 
В этой теме нет новых непрочитанных сообщений. Горные лыжи. Кубок мира 2017–2018. 3-й Этап. Киллингтон (США). Женщины. Гигантский слалом / Eurosport 1 HD [Горные лыжи, 25.11.2017, HDTV (1080i)), RU]

0 | 0

1.96 ГБ

В этой теме нет новых непрочитанных сообщений. Горные лыжи. Кубок мира 2017–2018. Лейк-Луиз (Канада). Женщины. Супергигантский слалом / Eurosport 1 HD [Горные лыжи, 03.12.2017, HDTV (1080i), RU]

0 | 0

2.17 ГБ

В этой теме нет новых непрочитанных сообщений. Горные лыжи. Кубок мира 2017–2018. 2-й Этап. Лейк-Луиc (Канада). Мужчины. Супергигантский слалом / Eurosport 1 HD [Горные лыжи, 26.11.2017, HDTV (1080i), RU]

0 | 0

2 ГБ

В этой теме нет новых непрочитанных сообщений. Горные лыжи. Кубок мира 2017–2018. Аделбоден (Швейцария). Женщины. Слалом 1-я попытка / Eurosport 1 HD [Горные лыжи, 07.01.2018, HDTV (720р), INT]

0 | 0

3.31 ГБ

В этой теме нет новых непрочитанных сообщений. Горные лыжи. Кубок мира 2017–2018. Бивер-Крик (США). Мужчины. Супергигантский слалом / Eurosport 1 HD [Горные лыжи, 01.12.2017, HDTV (1080i), RU]

0 | 0

1.8 ГБ

В этой теме нет новых непрочитанных сообщений. Горные лыжи. Кубок мира 2017–2018. Бивер-Крик (США). Мужчины. Гигантский слалом / Eurosport 1 HD [Горные лыжи, 03.12.2017, HDTV (1080i), RU]

0 | 0

3.48 ГБ

В этой теме нет новых непрочитанных сообщений. Горные лыжи. Кубок мира 2017–2018. Лиенц (Австрия). Женщины. Слалом / Eurosport 1 HD [Горные лыжи, 28.12.2017, HDTVRip (720р), INT]

0 | 0

5.89 ГБ




Вы не можете начинать темы
Вы не можете отвечать на сообщения
Вы не можете редактировать свои сообщения
Вы не можете удалять свои сообщения
Вы не можете добавлять вложения

Перейти:  
 Вход
ppkBB3cker v.2 © 2008-2014 @ PPK
[ Time : 0.030s | 16 Queries | GZIP : Off ]

cron