img image001 image001 image001 image001 image001 image001 image001 image001 image001 image001 image001 image001 image001 image001 image001 image001

Planets Sun Sun Sun
Статистика раздачи
Автор: Снежана | Размер: 1.6 ГБ | Добавлен: 15 фев 2018
Раздают: 0    Качают: 0
Скачать торрент
Скачать торрент
Описание торрента

СообщениеДобавлено: 15 фев 2018 

Горные лыжи. Кубок мира 2017–2018. Бивер-Крик (США). Мужчины. Супергигантский слалом


Перевод: Русский, cубтитры: отсутствуют
Формат: HDTVRip 720р, MKV, H.264, AC3
Страна: США
Вид спорта: Горные лыжи
Продолжительность: 01:10:26
Дата эфира: 01.12.2017

Комментатор: Владимир Андреев

Описание: 1 декабря 2017 года, пятница. 20:45 МСК
Этап Кубка мира по горнолыжному спорту сезона 2017-2018 года.
Бивер-Крик (США)
Мужчины. Супергигантский слалом


Видео: 1280x720 (16:9), 50,000 fps, AVC (х264), , 2983 Кбит/сек, ~ 0.065 bit/pixel
Аудио #1: Русский 48 kHz, AC3 Dolby Digital, 2/0 (L,R) ch, ~128.00 kbps avg
Аудио #2: Английский 48 kHz, AC3 Dolby Digital, 2/0 (L,R) ch, ~128.00 kbps avg

Общее
Уникальный идентификатор : 182607415198447493417578984716699719778 (0x8960E8ADA800DA71A398DB14F4485862)
Полное имя : F:\SPORT\Горные лыжи\(01.12.2017)_FIS Alpine Ski 4Ev. WC 2017-2018.Beaver Creek(USA). M_Super_G_720p.mkv
Формат : Matroska
Версия формата : Version 4 / Version 2
Размер файла : 1,60 Гбайт
Продолжительность : 1 ч. 10 м.
Общий поток : 3243 Кбит/сек
Дата кодирования : UTC 2017-12-02 11:55:22
Программа кодирования : mkvmerge v18.0.0 ('Apricity') 32-bit
Библиотека кодирования : libebml v1.3.5 + libmatroska v1.4.8

Видео
Идентификатор : 1
Формат : AVC
Формат/Информация : Advanced Video Codec
Профиль формата :
Настройки формата : CABAC / 4 Ref Frames
Параметр CABAC формата : Да
Параметр RefFrames формата : 4 кадра
Идентификатор кодека : V_MPEG4/ISO/AVC
Продолжительность : 1 ч. 10 м.
Битрейт : 2983 Кбит/сек
Ширина : 1280 пикселей
Высота : 720 пикселей
Соотношение сторон : 16:9
Режим частоты кадров : Постоянный
Частота кадров : 50,000 кадров/сек
Цветовое пространство : YUV
Субдискретизация насыщенности : 4:2:0
Битовая глубина : 8 бит
Тип развёртки : Прогрессивная
Бит/(Пиксели*Кадры) : 0.065
Размер потока : 1,47 Гбайт (92%)
Default : Да
Forced : Нет

Аудио #1
Идентификатор : 2
Формат : AC-3
Формат/Информация : Audio Coding 3
Параметр Endianness формата : Big
Идентификатор кодека : A_AC3
Продолжительность : 1 ч. 10 м.
Вид битрейта : Постоянный
Битрейт : 128 Кбит/сек
Каналы : 2 канала
Расположение каналов : Front: L R
Частота : 48,0 КГц
Частота кадров : 31,250 кадров/сек (1536 SPF)
Битовая глубина : 16 бит
Метод сжатия : С потерями
Размер потока : 64,5 Мбайт (4%)
Язык : Russian
ServiceKind/String : Complete Main
Default : Да
Forced : Нет

Аудио #2
Идентификатор : 3
Формат : AC-3
Формат/Информация : Audio Coding 3
Идентификатор кодека : A_AC3
Продолжительность : 1 ч. 10 м.
Битрейт : 128 Кбит/сек
Каналы : 2 канала
Частота : 48,0 КГц
Частота кадров : 31,248 кадров/сек (1536 SPF)
Метод сжатия : С потерями
Размер потока : 64,5 Мбайт (4%)
Язык : English
Default : Нет
Forced : Нет







   Похожие торренты   Торрент   Размер 
В этой теме нет новых непрочитанных сообщений. Горные лыжи. Кубок мира 2017–2018. Бивер-Крик (США). Мужчины. Супергигантский слалом / Eurosport 1 HD [Горные лыжи, 01.12.2017, HDTV (1080i), RU]

0 | 0

1.8 ГБ

В этой теме нет новых непрочитанных сообщений. Горные лыжи. Кубок мира 2017–2018. Бивер-Крик (США). Мужчины. Гигантский слалом / Eurosport 1 HD [Горные лыжи, 03.12.2017, HDTVRip (720р), RU]

0 | 3

2.49 ГБ

В этой теме нет новых непрочитанных сообщений. Горные лыжи. Кубок мира 2017–2018. Бивер-Крик (США). Мужчины. Гигантский слалом / Eurosport 1 HD [Горные лыжи, 03.12.2017, HDTV (1080i), RU]

0 | 0

3.48 ГБ

В этой теме нет новых непрочитанных сообщений. Горные лыжи. Кубок мира 2017–2018. Валь Гардена - Грёден (Италия). Мужчины. Супергигантский слалом / Eurosport 1 HD [Горные лыжи, 15.12.2017, HDTVRip (720р), RU]

0 | 0

2.36 ГБ

В этой теме нет новых непрочитанных сообщений. Горные лыжи. Кубок мира 2017–2018. Санкт-Мориц (Швейцария). Женщины. Супергигантский слалом / Eurosport 1 HD [Горные лыжи, 09.12.2017, HDTVRip (720р), RU]

0 | 0

1.89 ГБ

В этой теме нет новых непрочитанных сообщений. Горные лыжи. Кубок мира 2017–2018. Валь дe Изер (Франция). Женщины. Супергигантский слалом / Eurosport 1 HD [Горные лыжи, 17.12.2017, HDTVRip (720р), RU]

0 | 0

1.38 ГБ

В этой теме нет новых непрочитанных сообщений. Горные лыжи. Кубок мира 2017–2018. Валь дe Изер (Франция). Женщины. Супергигантский слалом / Eurosport 1 HD [Горные лыжи, 16.12.2017, HDTVRip (720р), RU]

0 | 0

3.29 ГБ




Вы не можете начинать темы
Вы не можете отвечать на сообщения
Вы не можете редактировать свои сообщения
Вы не можете удалять свои сообщения
Вы не можете добавлять вложения

Перейти:  
 Вход
ppkBB3cker v.2 © 2008-2014 @ PPK
[ Time : 0.023s | 16 Queries | GZIP : Off ]

cron