img image001 image001 image001 image001 image001 image001 image001 image001 image001 image001 image001 image001 image001 image001 image001 image001

Planets Sun Sun Sun
Статистика раздачи
Автор: Снежана | Размер: 1.8 ГБ | Добавлен: 15 фев 2018
Раздают: 0    Качают: 0
Скачать торрент
Скачать торрент
Описание торрента

СообщениеДобавлено: 15 фев 2018 

Горные лыжи. Кубок мира 2017–2018. Бивер-Крик (США). Мужчины. Супергигантский слалом


Перевод: Русский, cубтитры: отсутствуют
Формат: HDTV 1080i, MKV, H.264, AAC
Страна: США
Вид спорта: Горные лыжи
Продолжительность: 01:10:25
Дата эфира: 01.12.2017

Комментатор: Владимир Андреев

Описание: 1 декабря 2017 года, пятница. 20:45 МСК
Этап Кубка мира по горнолыжному спорту сезона 2017-2018 года.
Бивер-Крик (США)
Мужчины. Супергигантский слалом


Видео: 1920x1080 (16:9), 25,000 fps, AVC (х264), High@L4, 3538 Кбит/сек, ~ 0.068 bit/pixel
Аудио: 44.1 kHz, AAC, 2/0 (L,R), ~126.00 kbps avg

Общее
Уникальный идентификатор : 191772360659292039688888866913611095232 (0x904603606ABD55E9A887040D41831CC0)
Полное имя : F:\SPORT\Горные лыжи\(01.12.2017)_FIS Alpine Ski 4Ev. WC 2017-2018.Beaver Creek(USA). M_Super-G.mkv
Формат : Matroska
Версия формата : Version 4 / Version 2
Размер файла : 1,80 Гбайт
Продолжительность : 1 ч. 10 м.
Общий поток : 3666 Кбит/сек
Дата кодирования : UTC 2017-12-02 11:16:55
Программа кодирования : mkvmerge v18.0.0 ('Apricity') 32-bit
Библиотека кодирования : libebml v1.3.5 + libmatroska v1.4.8

Видео
Идентификатор : 1
Формат : AVC
Формат/Информация : Advanced Video Codec
Профиль формата : High@L4
Настройки формата : CABAC / 2 Ref Frames
Параметр CABAC формата : Да
Параметр RefFrames формата : 2 кадра
Идентификатор кодека : V_MPEG4/ISO/AVC
Продолжительность : 1 ч. 10 м.
Битрейт : 3538 Кбит/сек
Ширина : 1920 пикселей
Высота : 1080 пикселей
Соотношение сторон : 16:9
Режим частоты кадров : Постоянный
Частота кадров : 25,000 кадров/сек
Цветовое пространство : YUV
Субдискретизация насыщенности : 4:2:0
Битовая глубина : 8 бит
Тип развёртки : Прогрессивная
Бит/(Пиксели*Кадры) : 0.068
Размер потока : 1,74 Гбайт (97%)
Default : Да
Forced : Нет
Цветовой диапазон : Limited
Основные цвета : BT.709
Характеристики трансфера : BT.709
Коэффициенты матрицы : BT.709

Аудио
Идентификатор : 2
Формат : AAC
Формат/Информация : Advanced Audio Codec
Профиль формата : LC
Идентификатор кодека : A_AAC-2
Продолжительность : 1 ч. 10 м.
Битрейт : 126 Кбит/сек
Каналы : 2 канала
Расположение каналов : Front: L R
Частота : 44,1 КГц
Частота кадров : 43,066 кадра/сек (1024 SPF)
Метод сжатия : С потерями
Размер потока : 63,3 Мбайт (3%)
Язык : Russian
Default : Да
Forced : Нет







   Похожие торренты   Торрент   Размер 
В этой теме нет новых непрочитанных сообщений. Горные лыжи. Кубок мира 2017–2018. Бивер-Крик (США). Мужчины. Супергигантский слалом / Eurosport 1 HD [Горные лыжи, 01.12.2017, HDTVRip (720р), RU]

0 | 0

1.6 ГБ

В этой теме нет новых непрочитанных сообщений. Горные лыжи. Кубок мира 2017–2018. Бивер-Крик (США). Мужчины. Гигантский слалом / Eurosport 1 HD [Горные лыжи, 03.12.2017, HDTV (1080i), RU]

0 | 0

3.48 ГБ

В этой теме нет новых непрочитанных сообщений. Горные лыжи. Кубок мира 2017–2018. 2-й Этап. Лейк-Луиc (Канада). Мужчины. Супергигантский слалом / Eurosport 1 HD [Горные лыжи, 26.11.2017, HDTV (1080i), RU]

0 | 0

2 ГБ

В этой теме нет новых непрочитанных сообщений. Горные лыжи. Кубок мира 2017–2018. Бивер-Крик (США). Мужчины. Гигантский слалом / Eurosport 1 HD [Горные лыжи, 03.12.2017, HDTVRip (720р), RU]

0 | 3

2.49 ГБ

В этой теме нет новых непрочитанных сообщений. Горные лыжи. Кубок мира 2017–2018. Бивер-Крик (США). Мужчины. Скоростной спуск / Eurosport 1 HD [Горные лыжи, 02.12.2017, HDTV (1080i), RU]

0 | 0

2.86 ГБ

В этой теме нет новых непрочитанных сообщений. Горные лыжи. Кубок мира 2017–2018. Лейк-Луиз (Канада). Женщины. Супергигантский слалом / Eurosport 1 HD [Горные лыжи, 03.12.2017, HDTV (1080i), RU]

0 | 0

2.17 ГБ

В этой теме нет новых непрочитанных сообщений. Горные лыжи. Кубок мира 2017–2018. Валь Гардена - Грёден (Италия). Мужчины. Супергигантский слалом / Eurosport 1 HD [Горные лыжи, 15.12.2017, HDTVRip (720р), RU]

0 | 0

2.36 ГБ




Вы не можете начинать темы
Вы не можете отвечать на сообщения
Вы не можете редактировать свои сообщения
Вы не можете удалять свои сообщения
Вы не можете добавлять вложения

Перейти:  
 Вход
ppkBB3cker v.2 © 2008-2014 @ PPK
[ Time : 0.028s | 16 Queries | GZIP : Off ]

cron