img image001 image001 image001 image001 image001 image001 image001 image001 image001 image001 image001 image001 image001 image001 image001 image001

Planets Sun Sun Sun
Статистика раздачи
Автор: Снежана | Размер: 11.4 ГБ | Добавлен: 15 фев 2018
Раздают: 1    Качают: 1
Скачать торрент
Скачать торрент
Описание торрента

СообщениеДобавлено: 15 фев 2018 

Лабиринты (1-9 серии из 16)

Перевод: Не требуется, cубтитры: отсутствуют
Формат: WEB-DL 720p, MKV, H.264, AC3
Страна: Россия
Режиссер: Юрий Владовский
Жанр: мелодрама
Всего серий: 16
Продолжительность: 9 х ~ 00:50:00
Год выпуска: 2017

В ролях: Елена Вожакина, Дмитрий Пчела, Татьяна Лютаева, Полина Филоненко, Артур Литвинов, Стефан Отто, Елена Крайняя, Андрей Курносов, Алина Кикеля, Светлана Казарцева, Сергей Паршин, Любовь Макеева, Надежда Азоркина, Максим Антипов, Виктор Бабич, Ник Тихонов, Антон Багмет, Анастасия Ступина

Описание: У Марины в жизни все хорошо. Успешная карьера в крупной компании, любящий муж Сергей и родители. Омрачает счастье героини только одно – она уже десять лет замужем, но никак не может забеременеть, не помогает даже ЭКО. Медицинских причин для этого нет, врачи лишь разводят руками. Марина же все больше винит себя. Она уверена, что причина ее бесплодия – давний аборт, который она сделала еще в молодости. Марина решается на усыновление, но муж отказывается воспитывать чужого ребенка, с чужими генами. Героиня не подозревает, в чем истинная причина такой категоричности супруга. В один прекрасный день Марина знакомится с маленьким мальчиком Сережей, внуком уборщицы в компании. Бабушке приходится одной поднимать и нерадивую дочь Альбину, и внука. Альбина – безработная и незамужняя девушка, сын для нее обуза. Марина начинает помогать мальчику и постепенно в ней зреет неосуществимая надежда, что она сможет усыновить Сережу. Тем временем выясняется, что у мужа Марины есть тайная семья и в ней растет ребенок…

Рейтинг и доп. информация:


Видео: 1280x720p (16:9), 25 fps, AVC MPEG-4 (x264), ~ 3500 kbps avg, 0.152 bit/pixel
Аудио: 44 kHz, AC3, 2/0 (L,R) ch, ~192.00 kbps avg
Внимание! Раздача ведётся путём добавления новых серий. При каждом добавлении создаётся новый торрент.
Чтобы начать докачку новой серии, пользователям необходимо сделать следующее:
1. Остановить скачивание.
2. Удалить старый торрент у себя из клиента (старые серии удалять не надо).
3. Скачать новый торрент и запустить его у себя в клиенте вместо старого, при этом указать клиенту путь в старую папку куда и должно происходить скачивание новых серий. Ваш клиент при этом должен произвести хеширование (проверку) старой папки и будет докачивать только те серии, которых у вас ещё нет. Старые серии при этом не удаляются, а продолжают раздаваться! Eсли вы уже удалили старые серии, то предотвратить повторную закачку старых серий можно, отжав галочку в соответствующих местах при запуске нового торрента.


Общее
Уникальный идентификатор : 54932232024737116972811422962123134821 (0x295390247E571794719DC88F3D21D765)
Полное имя : C:\Лабиринты.2017.WEB-DL720p.\01.Лабиринты.2017.WEB-DL720p.mkv
Формат : Matroska
Версия формата : Version 4 / Version 2
Размер файла : 1,19 Гбайт
Продолжительность : 47 м. 1 с.
Общий поток : 3628 Кбит/сек
Программа кодирования : Lavf56.25.101
Библиотека кодирования : Lavf56.25.101

Видео
Идентификатор : 1
Формат : AVC
Формат/Информация : Advanced Video Codec
Профиль формата :
Настройки формата : CABAC / 5 Ref Frames
Параметр CABAC формата : Да
Параметр RefFrames формата : 5 кадров
Идентификатор кодека : V_MPEG4/ISO/AVC
Продолжительность : 47 м. 1 с.
Битрейт : 3500 Кбит/сек
Ширина : 1280 пикселей
Высота : 720 пикселей
Соотношение сторон : 16:9
Режим частоты кадров : Постоянный
Частота кадров : 25,000 кадров/сек
Цветовое пространство : YUV
Субдискретизация насыщенности : 4:2:0
Битовая глубина : 8 бит
Тип развёртки : Прогрессивная
Бит/(Пиксели*Кадры) : 0.152
Размер потока : 1,10 Гбайт (93%)
Библиотека кодирования : x264 core 148
Настройки программы : cabac=1 / ref=5 / deblock=1:0:0 / analyse=0x3:0x113 / me=hex / subme=8 / psy=1 / psy_rd=1.00:0.00 / mixed_ref=1 / me_range=16 / chroma_me=1 / trellis=2 / 8x8dct=1 / cqm=0 / deadzone=21,11 / fast_pskip=1 / chroma_qp_offset=-2 / threads=1 / lookahead_threads=1 / sliced_threads=0 / nr=0 / decimate=1 / interlaced=0 / bluray_compat=0 / constrained_intra=0 / bframes=3 / b_pyramid=2 / b_adapt=1 / b_bias=0 / direct=3 / weightb=1 / open_gop=0 / weightp=2 / keyint=250 / keyint_min=25 / scenecut=0 / intra_refresh=0 / rc_lookahead=50 / rc=abr / mbtree=1 / bitrate=3500 / ratetol=1.0 / qcomp=0.60 / qpmin=0 / qpmax=69 / qpstep=4 / ip_ratio=1.40 / aq=1:1.00
Default : Да
Forced : Нет

Аудио
Идентификатор : 2
Формат : AC-3
Формат/Информация : Audio Coding 3
Идентификатор кодека : A_AC3
Продолжительность : 47 м. 1 с.
Вид битрейта : Постоянный
Битрейт : 192 Кбит/сек
Каналы : 2 канала
Расположение каналов : Front: L R
Частота : 44,1 КГц
Частота кадров : 28,711 кадров/сек (1536 SPF)
Битовая глубина : 16 бит
Метод сжатия : С потерями
Задержка видео : -80 мс.
Размер потока : 64,6 Мбайт (5%)
Язык : unknown
ServiceKind/String : Complete Main
Default : Да
Forced : Нет








   Похожие торренты   Торрент   Размер 
В этой теме нет новых непрочитанных сообщений. Лабиринты (1-6 серии из 16) (Юрий Владовский) [2017, мелодрама, WEB-DL 720p]

0 | 0

7.51 ГБ

В этой теме нет новых непрочитанных сообщений. Лабиринты (1-16 серии из 16) (Юрий Владовский) [2017, мелодрама, WEB-DL 720p]

12 | 0

20.42 ГБ

В этой теме нет новых непрочитанных сообщений. Лабиринты (1-16 серии из 16) (Юрий Владовский) [2017, мелодрама, WEB-DLRip-AVC]

102 | 20

9.7 ГБ

В этой теме нет новых непрочитанных сообщений. Лабиринты (1-6 серии из 16) (Юрий Владовский) [2017, мелодрама, SATRip]

0 | 0

3.51 ГБ

В этой теме нет новых непрочитанных сообщений. Лабиринты (1-3 серии из 16) (Юрий Владовский) [2017, мелодрама, WEB-DLRip-AVC]

0 | 0

1.73 ГБ

В этой теме нет новых непрочитанных сообщений. Лабиринты (1-6 серии из 16) (Юрий Владовский) [2017, мелодрама, WEB-DLRip-AVC]

9 | 0

3.56 ГБ

В этой теме нет новых непрочитанных сообщений. Лабиринты (1-12 серии из 16) (Юрий Владовский) [2017, мелодрама, WEB-DL 1080p]

10 | 0

21.9 ГБ




Вы не можете начинать темы
Вы не можете отвечать на сообщения
Вы не можете редактировать свои сообщения
Вы не можете удалять свои сообщения
Вы не можете добавлять вложения

Перейти:  
 Вход
ppkBB3cker v.2 © 2008-2014 @ PPK
[ Time : 0.033s | 17 Queries | GZIP : Off ]

cron