img image001 image001 image001 image001 image001 image001 image001 image001 image001 image001 image001 image001 image001 image001 image001 image001

Planets Sun Sun Sun
Статистика раздачи
Автор: Снежана | Размер: 1.41 ГБ | Добавлен: 19 фев 2018
Раздают: 6    Качают: 0
Скачать торрент
Скачать торрент
Описание торрента

СообщениеДобавлено: 19 фев 2018 

Гаттака / Gattaca

Перевод: Профессиональный (полное дублирование)
Субтитры: Русские, английские
Формат: WEB-DLRip-AVC, MKV, H.264, AC3
Страна: США
Режиссер: Эндрю Никкол
Жанр: фантастика, мелодрама, драма, детектив
Продолжительность: 01:46:39
Год выпуска: 1997

В ролях: Итан Хоук, Джуд Лоу, Ума Турман, Алан Аркин, Лорен Дин, Тони Шэлуб, Гор Видал, Ксандер Беркли, Джейн Брук, Элиас Котеас

Описание: Добро пожаловать в Гаттаку — совершенный мир будущего. Здесь каждый генетически запрограммирован, и печальная судьба ожидает тех, кто был рожден в любви, а не в лаборатории. Такова судьба Винсента Фримана, молодого человека, получившего при рождении ярлык «не пригоден».
Винсент обладает весомыми недостатками: он подвержен страстям, он поддается эмоциям, и он верит в то, что его мечты сбудутся. Вот почему он покупает личность другого человека, пытаясь обмануть власти и стать уважаемым членом Корпорации Будущего Гаттака.
И когда он уже на пути к свободе, убийство грозит раскрытием его реальной личности. Несмотря на свою невиновность, Винсенту есть что скрывать и есть что терять. Но так трудно остаться в живых, когда в тебе живут два человека…




Видео: 1024x576 (16:9), 23.976 fps, AVC MPEG-4 (H.264), ~1412 kbps, 0.100 bit/pixel
Аудио: 48 kHz, AC3 Dolby Digital, 6 ch, ~448 kbps

Format : Matroska
Format version : Version 4 / Version 2
File size : 1.41 GiB
Duration : 1 h 46 min
Overall bit rate : 1 897 kb/s

Video
ID : 1
Format : AVC
Format/Info : Advanced Video Codec
Format profile :
Format settings : CABAC / 10 Ref Frames
Format settings, CABAC : Yes
Format settings, ReFrames : 10 frames
Codec ID : V_MPEG4/ISO/AVC
Duration : 1 h 46 min
Bit rate : 1 412 kb/s
Width : 1 024 pixels
Height : 576 pixels
Display aspect ratio : 16:9
Frame rate mode : Constant
Frame rate : 23.976 (24000/1001) FPS
Color space : YUV
Chroma subsampling : 4:2:0
Bit depth : 8 bits
Scan type : Progressive
Bits/(Pixel*Frame) : 0.100
Stream size : 1.05 GiB (74%)
Title : RIP_BY_-=DoMiNo=-
Writing library : x264 core 155 r2901M 7d0ff22
Encoding settings : cabac=1 / ref=10 / deblock=1:-3:-3 / analyse=0x3:0x133 / me=umh / subme=10 / psy=1 / psy_rd=1.00:0.10 / mixed_ref=1 / me_range=32 / chroma_me=1 / trellis=2 / 8x8dct=1 / cqm=0 / deadzone=21,11 / fast_pskip=1 / chroma_qp_offset=-3 / threads=6 / lookahead_threads=1 / sliced_threads=0 / nr=0 / decimate=1 / interlaced=0 / bluray_compat=0 / constrained_intra=0 / bframes=9 / b_pyramid=2 / b_adapt=2 / b_bias=0 / direct=3 / weightb=1 / open_gop=0 / weightp=2 / keyint=240 / keyint_min=24 / scenecut=40 / intra_refresh=0 / rc_lookahead=60 / rc=crf / mbtree=1 / crf=18.5 / qcomp=0.60 / qpmin=0 / qpmax=69 / qpstep=4 / ip_ratio=1.40 / aq=1:1.00
Language : English
Default : Yes
Forced : No
Color range : Limited
Color primaries : BT.709
Transfer characteristics : BT.709
Matrix coefficients : BT.709

Audio
ID : 2
Format : AC-3
Format/Info : Audio Coding 3
Codec ID : A_AC3
Duration : 1 h 46 min
Bit rate mode : Constant
Bit rate : 448 kb/s
Channel(s) : 6 channels
Channel positions : Front: L C R, Side: L R, LFE
Sampling rate : 48.0 kHz
Frame rate : 31.250 FPS (1536 SPF)
Bit depth : 16 bits
Compression mode : Lossy
Stream size : 342 MiB (24%)
Title : DUB - Blu-ray CEE
Language : Russian
Service kind : Complete Main
Default : Yes
Forced : Yes

Text #1
ID : 3
Format : UTF-8
Codec ID : S_TEXT/UTF8
Codec ID/Info : UTF-8 Plain Text
Title : Russian Full
Language : Russian
Default : Yes
Forced : No

Text #2
ID : 4
Format : UTF-8
Codec ID : S_TEXT/UTF8
Codec ID/Info : UTF-8 Plain Text
Title : English Full
Language : English
Default : No
Forced : No












   Похожие торренты   Торрент   Размер 
В этой теме нет новых непрочитанных сообщений. Эквилибриум / Equilibrium (Курт Уиммер) [Open Matte] [2002, фантастика, боевик, триллер, драма, BDRip-AVC] DUB / Фантастика

8 | 0

1.46 ГБ

В этой теме нет новых непрочитанных сообщений. Прометей / Prometheus (Ридли Скотт) [Open Matte] [2012, фантастика, триллер, приключения, WEB-DLRip] DUB / Фантастика

10 | 0

1.46 ГБ

В этой теме нет новых непрочитанных сообщений. Особое мнение / Minority Report (Стивен Спилберг) [Open Matte] [2002, фантастика, боевик, триллер, WEB-DLRip-AVC] DUB / Фантастика

1 | 0

745.11 МБ

В этой теме нет новых непрочитанных сообщений. Орбита 9 / Orbita 9 (Хатем Храиче) [2017, фантастика, драма, мелодрама, BDRip-AVC] DUB / Фантастика

32 | 2

1.46 ГБ

В этой теме нет новых непрочитанных сообщений. Плохая партия / The Bad Batch (Ана Лили Амирпур) [2016, Фантастика, мелодрама, драма, ужасы, HDRip-AVC] MVO / Фантастика

6 | 0

744.87 МБ

В этой теме нет новых непрочитанных сообщений. Космос между нами / The Space Between Us (Питер Челсом) [2017, фантастика, драма, мелодрама, приключения, HDRip-AVC] DUB / Фантастика

22 | 0

2.28 ГБ

В этой теме нет новых непрочитанных сообщений. Орудия смерти: Город костей / The Mortal Instruments: City of Bones (Харольд Цварт) [2013, фэнтези, приключения, драма, мелодрама, детектив, боевик, BDRip] DUB / Фантастика

43 | 0

2.18 ГБ




Вы не можете начинать темы
Вы не можете отвечать на сообщения
Вы не можете редактировать свои сообщения
Вы не можете удалять свои сообщения
Вы не можете добавлять вложения

Перейти:  
 Вход
ppkBB3cker v.2 © 2008-2014 @ PPK
[ Time : 0.037s | 16 Queries | GZIP : Off ]

cron