img image001 image001 image001 image001 image001 image001 image001 image001 image001 image001 image001 image001 image001 image001 image001 image001

Planets Sun Sun Sun
Статистика раздачи
Автор: Снежана | Размер: 1.29 ГБ | Добавлен: 20 фев 2018
Раздают: 204    Качают: 3
Скачать торрент
Скачать торрент
Описание торрента

СообщениеДобавлено: 20 фев 2018 

Киборги / Кіборги
Оценка релиза: 
Герої не вмирають


Язык: Украинский, Русский
Перевод: Не требуется, субтитры (украинские - форсированные) (вшитые)
Формат: BDRip, AVI, XviD, MP3
Страна: Украина
Режиссер: Ахтем Сейтаблаев
Жанр: военный, драма, детектив
Продолжительность: 01:52:41
Год выпуска: 2017

В ролях: Макар Тихомиров, Андрей Исаенко, Виктор Жданов, Александр Пискунов, Роман Ясинский, Вячеслав Довженко, Костянтин Темляк, Роман Семисал, Наталья Мосейчук, Александр Загородный, Владислав Журенко

Описание: История разворачивается в течение двухнедельного дежурства в аэропорту одного батальона в сентябре 2014 года. Добровольческая группа впервые приезжает в горячую точку, которая уже четыре месяца держит оборону, и лицом к лицу сталкивается со страшным лицом войны.


Видео: 1280x720 (16:9), 24.000 fps, XviD build 50 ~ 1498 Kbps, 0.068 bit/pixel
Аудио: 44.1 KHz, MPEG Layer 3,2 ch, ~128 Kbps

Общее
Полное имя : D:\Фильмы\Кіборги. Герої не вмирають.avi
Формат : AVI
Формат/Информация : Audio Video Interleave
Профиль формата : OpenDML
Размер файла : 1,29 Гбайт
Продолжительность : 1 ч. 52 м.
Общий поток : 1640 Кбит/сек
Программа кодирования : Lavf56.15.102

Видео
Идентификатор : 0
Формат : xvid
Идентификатор кодека : xvid
Продолжительность : 1 ч. 52 м.
Битрейт : 1498 Кбит/сек
Ширина : 1280 пикселей
Высота : 720 пикселей
Соотношение сторон : 16:9
Частота кадров : 24,000 кадра/сек
Тип развёртки : Прогрессивная
Бит/(Пиксели*Кадры) : 0.068
Размер потока : 1,18 Гбайт (91%)

Аудио
Идентификатор : 1
Формат : MPEG Audio
Версия формата : Version 1
Профиль формата : Layer 3
Настройки формата : Joint stereo / MS Stereo
Идентификатор кодека : 55
Идентификатор кодека/Подсказка : MP3
Продолжительность : 1 ч. 52 м.
Вид битрейта : Постоянный
Битрейт : 128 Кбит/сек
Каналы : 2 канала
Частота : 44,1 КГц
Метод сжатия : С потерями
Размер потока : 103 Мбайт (8%)
Выравнивание : Соединение по промежуткам
Продолжительность промежутка : 26 мс. (0,63 видеокадр)
Время предзагрузки промежутка : 26 мс.












   Похожие торренты   Торрент   Размер 
В этой теме нет новых непрочитанных сообщений. Киборги / Кіборги (Ахтем Сейтаблаев) [2017, Боевик, военный, драма, HDRip]

232 | 0

2.17 ГБ

В этой теме нет новых непрочитанных сообщений. Ликвидация (1-14 серии из 14) (Сергей Урсуляк) [2007, детектив, криминал, триллер, драма, военный, история, WEB-DL 720p]

4 | 1

24.23 ГБ

В этой теме нет новых непрочитанных сообщений. Ликвидация (1-14 серии из 14) (Сергей Урсуляк) [2007, детектив, криминал, триллер, драма, военный, история, WEB-DLRip-AVC]

0 | 4

17.64 ГБ

В этой теме нет новых непрочитанных сообщений. Меган Ливи / Megan Leavey (Габриэла Каупертвэйте) [2017, драма, военный, биография, BDRip-AVC] MVO

19 | 0

2.13 ГБ

В этой теме нет новых непрочитанных сообщений. Темные времена / Darkest Hour (Джо Райт) [2017, драма, военный, биография, история, BDRip] DUB

30 | 6

2.18 ГБ

В этой теме нет новых непрочитанных сообщений. Темные времена / Darkest Hour (Джо Райт) [2017, драма, военный, биография, история, BDRip] DUB

97 | 10

1.46 ГБ

В этой теме нет новых непрочитанных сообщений. Горы и камни / The Ottoman Lieutenant (Джозеф Рубин) [2017, драма, военный, BDRip] DUB / Драмы

17 | 0

2.18 ГБ




Вы не можете начинать темы
Вы не можете отвечать на сообщения
Вы не можете редактировать свои сообщения
Вы не можете удалять свои сообщения
Вы не можете добавлять вложения

Перейти:  
 Вход
ppkBB3cker v.2 © 2008-2014 @ PPK
[ Time : 0.023s | 16 Queries | GZIP : Off ]

cron