img image001 image001 image001 image001 image001 image001 image001 image001 image001 image001 image001 image001 image001 image001 image001 image001

Planets Sun Sun Sun
Статистика раздачи
Автор: Снежана | Размер: 636.5 МБ | Добавлен: 21 фев 2018
Раздают: 0    Качают: 0
Скачать торрент
Скачать торрент
Описание торрента

СообщениеДобавлено: 21 фев 2018 

За три дня до любви (1- серии из 16)

Перевод: Не требуется, cубтитры: отсутствуют
Формат: WEB-DLRip-AVC, MKV, H.264, AC3
Страна: Украина
Режиссер: Сергей Щербин
Жанр: мелодрама
Всего серий: 16
Продолжительность: 1 х ~ 00:50:00
Год выпуска: 2018

В ролях: Анастасия Карпенко, Дарина Егоркина, Антон Денисенко, Вячеслав Довженко, Александр Гетманский, Андрей Мостренко, Тамара Морозова, Влад Онищенко, Женя Лебедин, Александр Ганноченко, Елизавета Курбанмагомедова, Мария Заниборщ, Анатоль Фон-Филандра

Описание: Это чувственная мелодрама о сильной женщине Дане, которая добилась в жизни всего, что ей было нужно, но счастья от этого не прибавилось. Однажды, ее судьба пересекается с бизнесменом, жизнь которого оказалась под ударом, он погряз в долгах и не знает и в шаге от банкротства. Дана, предлагает ему сделку: она – оплачивает его злосчастные долги, он – дарит ей три дня своей жизни. К чему приведет этот договор, и какие тайны всплывут их жизни?

Рейтинг и доп. информация:


Видео: 1024x576 (16:9), 25 fps, AVC MPEG-4 (x264), ~ 1600 kbps , 0.109 bit/pixel
Аудио: 48 kHz, AC3, 2/0 (L,R) ch, ~192 kbps
Внимание! Раздача ведётся путём добавления новых серий. При каждом добавлении создаётся новый торрент.
Чтобы начать докачку новой серии, пользователям необходимо сделать следующее:
1. Остановить скачивание.
2. Удалить старый торрент у себя из клиента (старые серии удалять не надо).
3. Скачать новый торрент и запустить его у себя в клиенте вместо старого, при этом указать клиенту путь в старую папку куда и должно происходить скачивание новых серий. Ваш клиент при этом должен произвести хеширование (проверку) старой папки и будет докачивать только те серии, которых у вас ещё нет. Старые серии при этом не удаляются, а продолжают раздаваться! Eсли вы уже удалили старые серии, то предотвратить повторную закачку старых серий можно, отжав галочку в соответствующих местах при запуске нового торрента.


Общее
Уникальный идентификатор : 197720506721169911015967437935574109751 (0x94BF959E9AE85A3A98274832775DCE37)
Полное имя : C:\Za.tri.dnya.do.lybvi.(2018).WEB-DLRip.(AVC).\01.Za.tri.dnya.do.lybvi.(2018).WEB-DLRip.(AVC).mkv
Формат : Matroska
Версия формата : Version 2
Размер файла : 637 Мбайт
Продолжительность : 49 м. 36 с.
Общий поток : 1794 Кбит/сек
Дата кодирования : UTC 2018-02-19 23:42:28
Программа кодирования : mkvmerge v7.8.0 ('River Man') 32bit built on Apr 3 2015 12:11:22
Библиотека кодирования : libebml v1.3.1 + libmatroska v1.4.2

Видео
Идентификатор : 1
Формат : AVC
Формат/Информация : Advanced Video Codec
Профиль формата :
Настройки формата : CABAC / 9 Ref Frames
Параметр CABAC формата : Да
Параметр RefFrames формата : 9 кадров
Идентификатор кодека : V_MPEG4/ISO/AVC
Продолжительность : 49 м. 36 с.
Битрейт : 1600 Кбит/сек
Ширина : 1024 пикселя
Высота : 576 пикселей
Соотношение сторон : 16:9
Режим частоты кадров : Постоянный
Частота кадров : 25,000 кадров/сек
Цветовое пространство : YUV
Субдискретизация насыщенности : 4:2:0
Битовая глубина : 8 бит
Тип развёртки : Прогрессивная
Бит/(Пиксели*Кадры) : 0.109
Размер потока : 556 Мбайт (87%)
Библиотека кодирования : x264 core 146 r2538 121396c
Настройки программы : cabac=1 / ref=9 / deblock=1:-2:-1 / analyse=0x3:0x133 / me=umh / subme=9 / psy=1 / psy_rd=1.00:0.15 / mixed_ref=1 / me_range=32 / chroma_me=1 / trellis=2 / 8x8dct=1 / cqm=0 / deadzone=21,11 / fast_pskip=0 / chroma_qp_offset=-3 / threads=18 / lookahead_threads=3 / sliced_threads=0 / nr=0 / decimate=1 / interlaced=0 / bluray_compat=0 / constrained_intra=0 / bframes=9 / b_pyramid=2 / b_adapt=2 / b_bias=0 / direct=1 / weightb=1 / open_gop=0 / weightp=2 / keyint=250 / keyint_min=25 / scenecut=40 / intra_refresh=0 / rc=2pass / mbtree=0 / bitrate=1600 / ratetol=1.0 / qcomp=0.60 / qpmin=0 / qpmax=69 / qpstep=4 / cplxblur=20.0 / qblur=0.5 / ip_ratio=1.40 / pb_ratio=1.30 / aq=2:1.00
Default : Да
Forced : Нет
Цветовой диапазон : Limited
Основные цвета : BT.709
Характеристики трансфера : BT.709
Коэффициенты матрицы : BT.709

Аудио
Идентификатор : 2
Формат : AC-3
Формат/Информация : Audio Coding 3
Идентификатор кодека : A_AC3
Продолжительность : 49 м. 36 с.
Вид битрейта : Постоянный
Битрейт : 192 Кбит/сек
Каналы : 2 канала
Расположение каналов : Front: L R
Частота : 48,0 КГц
Частота кадров : 31,250 кадров/сек (1536 SPF)
Битовая глубина : 16 бит
Метод сжатия : С потерями
Размер потока : 68,1 Мбайт (11%)
ServiceKind/String : Complete Main
Default : Да
Forced : Нет








   Похожие торренты   Торрент   Размер 
В этой теме нет новых непрочитанных сообщений. За три дня до любви (1-8 серии из 16) (Сергей Щербин) [2018, мелодрама, WEB-DLRip-AVC]

58 | 6

4.92 ГБ

В этой теме нет новых непрочитанных сообщений. За три дня до любви (1-11 серии из 16) (Сергей Щербин) [2018, мелодрама, WEB-DLRip-AVC]

2 | 0

6.77 ГБ

В этой теме нет новых непрочитанных сообщений. За три дня до любви (1-12 серии из 16) (Сергей Щербин) [2018, мелодрама, WEB-DLRip-AVC]

6 | 6

7.39 ГБ

В этой теме нет новых непрочитанных сообщений. За три дня до любви (1-8 серии из 16) (Сергей Щербин) [2018, мелодрама, WEB-DLRip]

9 | 2

4.69 ГБ

В этой теме нет новых непрочитанных сообщений. За три дня до любви (1-4 серии из 16) (Сергей Щербин) [2018, мелодрама, WEB-DLRip]

12 | 0

2.34 ГБ

В этой теме нет новых непрочитанных сообщений. За три дня до любви (1-3 серии из 16) (Сергей Щербин) [2018, мелодрама, WEB-DLRip-AVC]

13 | 1

1.83 ГБ

В этой теме нет новых непрочитанных сообщений. За три дня до любви (1-16 серии из 16) (Сергей Щербин) [2018, мелодрама, WEB-DLRip-AVC]

19 | 4

9.78 ГБ




Вы не можете начинать темы
Вы не можете отвечать на сообщения
Вы не можете редактировать свои сообщения
Вы не можете удалять свои сообщения
Вы не можете добавлять вложения

Перейти:  
 Вход
ppkBB3cker v.2 © 2008-2014 @ PPK
[ Time : 0.053s | 18 Queries | GZIP : Off ]

cron