img image001 image001 image001 image001 image001 image001 image001 image001 image001 image001 image001 image001 image001 image001 image001 image001

Planets Sun Sun Sun
Статистика раздачи
Автор: Снежана | Размер: 26.9 ГБ | Добавлен: 22 фев 2018
Раздают: 4    Качают: 65
Скачать торрент
Скачать торрент
Описание торрента

СообщениеДобавлено: 22 фев 2018 

Маша и Медведь (1 - 68 серия из 68 )
Оценка релиза: 
Перевод: Не требуется, cубтитры: отсутствуют
Формат: HDRip, MKV, H.264, AC3
Страна: Россия
Режиссер: Андрей Добрунов, Дмитрий Ловейко, Олег Кузовков
Жанр: мультфильм, комедия, семейный
Продолжительность: 68x ~ 00:07:00
Год выпуска: 2009-2018

В ролях: Алина Кукушкина, Борис Кутневич, Эдуард Назаров.

Описание: Мультсериал про девочку Машу, которая никому не дает покоя, и в первую очередь — своему другу Медведю.



Видео: 1280x720 (16:9), 24,000 fps, AVC MPEG-4 (x264) ~4500 kbps avg, 0.203 bit/pixel
Аудио: 48 kHz, AC3, 6 ch ~ 448 Kbps

Релиз от:

Релиз предоставлен сайтом tfile.me!!


01. Первая встреча
02. До весны не будить!
03. Раз, два, три! Ёлочка, гори!
04. Весна пришла!
05. Ловись, рыбка!
06. Следы невиданных зверей
07. С волками жить...
08. Позвони мне, позвони!
09. День варенья
10. Праздник на льду
11. Первый раз в первый класс
12. Граница на замке
13. Кто не спрятался, я не виноват!
14. Лыжню!
15. Будьте здоровы!
16. Маша + каша
17. Дальний родственник
18. Большая стирка
19. Репетиция оркестра
20. Усатый-полосатый
21. Один дома
22. Дышите! Не дышите!
23. Подкидыш
24. Приятного аппетита
25. Фокус-покус
26. Осторожно, ремонт!
27. Картина маслом
28. Ход конём
29. Хит сезона
30. Витамин роста
31. Новая метла
32. Когда все дома
33. Сладкая жизнь
34. Фотография 9 на 12
35. Трудно быть маленьким
36. Двое на одного
37. Большое путешествие
38. Нынче все наоборот
39. Сказка на ночь
40. Красота - страшная сила
41. Дело в шляпе
42. День кино
43. Героями не рождаются
44. Раз в году
45. Запутанная история
46. Учитель танцев
47. Крик победы
48. Пещерный медведь
49. Дорогая передача
50. Праздник урожая
51. Неуловимые мстители
52. До новых встреч!
53. На круги своя
54. В гостях у сказки
55. Эх, прокачу!
56. Страшно, аж жуть!
57. На привале
58. Кошки Мышки
59. Game Over
60. К вашим услугам!
61. С любимыми не расставайтесь
62. Спи, моя радость, усни
63. Сюрприз! Сюрприз
64. Три машкетёра
65. Есть контакт!
66. Спокойствие, только спокойствие!
67. Цирк, да и только
68. Квартет плюс


Общее
Уникальный идентификатор : 245084464335035297539841581415333712812 (0xB8618D06414D297384A75303F0B553AC)
Полное имя : F:\TREKER\TEMP\masha_i_medved_[tfile.ru]\masha_i_medved_01_[tfile.ru].mkv
Формат : Matroska
Версия формата : Version 2
Размер файла : 243 Мбайт
Продолжительность : 6 м. 53 с.
Общий поток : 4941 Кбит/сек
Дата кодирования : UTC 2014-08-22 15:41:00
Программа кодирования : mkvmerge v4.0.0 ('The Stars were mine') сборка от Jun 6 2010 16:18:42
Библиотека кодирования : libebml v1.0.0 + libmatroska v1.0.0
Обложка : Yes

Видео
Идентификатор : 1
Формат : AVC
Формат/Информация : Advanced Video Codec
Профиль формата :
Параметр CABAC формата : Да
Параметр ReFrames формата : 9 кадров
Идентификатор кодека : V_MPEG4/ISO/AVC
Продолжительность : 6 м. 53 с.
Битрейт : 4500 Кбит/сек
Ширина : 1280 пикселей
Высота : 720 пикселей
Соотношение сторон : 16:9
Режим частоты кадров : Постоянный
Частота кадров : 24,000 кадра/сек
Цветовое пространство : YUV
Субдискретизация насыщенности : 4:2:0
Битовая глубина : 8 бит
Тип развёртки : Прогрессивная
Бит/(Пиксели*Кадры) : 0.203
Размер потока : 216 Мбайт (89%)
Библиотека кодирования : x264 core 116 r2074 2641b9e
Настройки программы : cabac=1 / ref=9 / deblock=1:-3:-2 / analyse=0x3:0x133 / me=tesa / subme=11 / psy=1 / psy_rd=0.60:0.00 / mixed_ref=1 / me_range=32 / chroma_me=1 / trellis=2 / 8x8dct=1 / cqm=0 / deadzone=21,11 / fast_pskip=0 / chroma_qp_offset=-2 / threads=6 / sliced_threads=0 / nr=0 / decimate=0 / interlaced=0 / bluray_compat=0 / constrained_intra=0 / bframes=12 / b_pyramid=2 / b_adapt=2 / b_bias=0 / direct=3 / weightb=1 / open_gop=0 / weightp=2 / keyint=250 / keyint_min=24 / scenecut=40 / intra_refresh=0 / rc_lookahead=50 / rc=2pass / mbtree=0 / bitrate=4500 / ratetol=1.0 / qcomp=0.70 / qpmin=0 / qpmax=69 / qpstep=4 / cplxblur=20.0 / qblur=0.5 / vbv_maxrate=50000 / vbv_bufsize=62500 / nal_hrd=none / ip_ratio=1.40 / pb_ratio=1.30 / aq=1:1.00
Язык : Russian
Default : Да
Forced : Нет

Аудио
Идентификатор : 2
Формат : AC-3
Формат/Информация : Audio Coding 3
Расширение режима : CM (complete main)
Параметр Endianness формата : Big
Идентификатор кодека : A_AC3
Продолжительность : 6 м. 53 с.
Вид битрейта : Постоянный
Битрейт : 448 Кбит/сек
Каналы : 6 каналов
Расположение каналов : Front: L C R, Side: L R, LFE
Частота : 48,0 КГц
Битовая глубина : 16 бит
Метод сжатия : С потерями
Размер потока : 22,1 Мбайт (9%)
Default : Да
Forced : Нет











Машины сказки (1 - 26 серия из 26 )
#77
Перевод: Не требуется, cубтитры: отсутствуют
Формат: HDRip, MKV, H.264, AC3
Страна: Россия
Режиссер: Андрей Добрунов, Дмитрий Ловейко, Олег Кузовков
Жанр: мультфильм, комедия, семейный
Продолжительность: 26x ~ 00:07:00
Год выпуска: 2009-2018

В ролях: Алина Кукушкина, Борис Кутневич, Эдуард Назаров.

Описание: Мультсериал про девочку Машу, которая никому не дает покоя, и в первую очередь — своему другу Медведю.



Видео: 1280x720 (16:9), 24,000 fps, AVC MPEG-4 (x264) ~4500 kbps avg, 0.203 bit/pixel
Аудио: 48 kHz, AC3, 6 ch ~ 448 Kbps


01. Волк и семеро козлят
02. Гуси-лебеди
03. Красная шапочка
04. Лиса и заяц
05. Морозко
06. Волк и лиса
07. Вершки и корешки
08. Царевна-лягушка
09. Снегурочка
10. Мальчик-с-пальчик
11. Крошечка-хаврошечка
12. Бычок смоляной бочок
13. Три поросёнка
14. Храбрый Портняжка
15. Али Баба
16. Золушка
17. Калиф-аист
18. Джек и бобовое зёрнышко
19. Свинопас
20. Синяя борода
21. По щучьему велению
22. Лисичка со скалочкой
23. Каша из топора
24. Пойди туда - не знаю куда, принеси то - не знаю что
25. Петушок-золотой гребешок
26. Конёк-горбунок

Общее
Уникальный идентификатор : 225041143320393387661271958039942911770 (0xA94D590081D4B1D9A5B7CCD626AFD71A)
Полное имя : F:\TREKER\ТЕМР\MASHA_AND_THE_BEAR_[tfile.ru]\masha_i_skazki_01_[tfile.ru].mkv
Формат : Matroska
Версия формата : Version 2
Размер файла : 265 Мбайт
Продолжительность : 7 м. 38 с.
Общий поток : 4856 Кбит/сек
Дата кодирования : UTC 2016-12-18 07:16:45
Программа кодирования : mkvmerge v4.0.0 ('The Stars were mine') сборка от Jun 6 2010 16:18:42
Библиотека кодирования : libebml v1.0.0 + libmatroska v1.0.0
Обложка : Yes
Attachments : cover.jpg

Видео
Идентификатор : 1
Формат : AVC
Формат/Информация : Advanced Video Codec
Профиль формата :
Параметр CABAC формата : Да
Параметр ReFrames формата : 6 кадров
Идентификатор кодека : V_MPEG4/ISO/AVC
Продолжительность : 7 м. 38 с.
Битрейт : 4500 Кбит/сек
Ширина : 1280 пикселей
Высота : 720 пикселей
Соотношение сторон : 16:9
Режим частоты кадров : Постоянный
Частота кадров : 24,000 кадра/сек
Цветовое пространство : YUV
Субдискретизация насыщенности : 4:2:0
Битовая глубина : 8 бит
Тип развёртки : Прогрессивная
Бит/(Пиксели*Кадры) : 0.203
Размер потока : 236 Мбайт (89%)
Библиотека кодирования : x264 core 146 r2538 121396c
Настройки программы : cabac=1 / ref=6 / deblock=1:-1:-1 / analyse=0x3:0x133 / me=umh / subme=10 / psy=1 / psy_rd=1.00:0.15 / mixed_ref=1 / me_range=24 / chroma_me=1 / trellis=2 / 8x8dct=1 / cqm=0 / deadzone=21,11 / fast_pskip=0 / chroma_qp_offset=-3 / threads=12 / lookahead_threads=1 / sliced_threads=0 / nr=0 / decimate=1 / interlaced=0 / bluray_compat=0 / constrained_intra=0 / bframes=3 / b_pyramid=2 / b_adapt=2 / b_bias=0 / direct=1 / weightb=1 / open_gop=0 / weightp=2 / keyint=250 / keyint_min=23 / scenecut=40 / intra_refresh=0 / rc_lookahead=50 / rc=abr / mbtree=1 / bitrate=4500 / ratetol=1.0 / qcomp=0.69 / qpmin=0 / qpmax=69 / qpstep=4 / ip_ratio=1.40 / aq=1:1.00
Default : Нет
Forced : Нет

Аудио
Идентификатор : 2
Формат : AC-3
Формат/Информация : Audio Coding 3
Расширение режима : CM (complete main)
Параметр Endianness формата : Big
Идентификатор кодека : A_AC3
Продолжительность : 7 м. 38 с.
Вид битрейта : Постоянный
Битрейт : 448 Кбит/сек
Каналы : 6 каналов
Расположение каналов : Front: L C R, Side: L R, LFE
Частота : 48,0 КГц
Частота кадров : 31,250 кадров/сек (1536 spf)
Битовая глубина : 16 бит
Метод сжатия : С потерями
Размер потока : 24,5 Мбайт (9%)
Default : Нет
Forced : Нет











Машкины страшилки (1 - 25 серия из 25 )
#77
Перевод: Не требуется, cубтитры: отсутствуют
Формат: HDRip, MKV, H.264, AC3
Страна: Россия
Режиссер: Андрей Добрунов, Дмитрий Ловейко, Олег Кузовков
Жанр: мультфильм, комедия, семейный
Продолжительность: 25x ~ 00:05:00
Год выпуска: 2018

В ролях: Алина Кукушкина, Борис Кутневич, Эдуард Назаров.

Описание: Мультсериал про девочку Машу, которая никому не дает покоя, и в первую очередь — своему другу Медведю.



Видео: 1280x720 (16:9), 25,000 fps, AVC MPEG-4 (x264) ~4700 kbps avg, 0.191 bit/pixel
Аудио: 48 kHz, AC3, 6 ch ~ 448 Kbps


01. Душераздирающая повесть о тёмном лесе и маленьком жучке.
02. Жутко-страшное предание о том, как один мальчик боялся умываться.
03. Чудовищная быль о том, как некоторые боятся чудовищ
04. Тревожный сказ о потерявшемся котёнке
05. Кошмарное поверие о новогодних стишках
06. Мрачная притча о суеверной девочке
07. Угрюмый завет о сопливом мальчике
08. О Девочке, которая боялась зверушек
09. Ужасающая история про бабушку и внучка
10. Полный отчаяния миф об исторической ошибке
11. Панически невыносимая легенда о букашках
12. Тревожный сказ про Бабку-Ёжку
13. Зловещая Сага о больном животике и о Девочке, которая боялась докторов
14. Фантастический рассказ о ёжике, мальчике и зелёных гуманоидах
15. Ужасная быль о том, как мальчика перевели в другую школу
16. Жуткая байка про пастушка на пеньке
17. Приводящая в трепет сага о велосипеде - призраке
18. Страшная страшилка о страшилках
19. Жутчайшая повесть о полезных изобретениях
20. Мрачная новелла о мрачных сновидениях
21. Грозная песнь о громе и молнии
22. Чудовищная правда о том, как страшно быть маленьким
23. Леденящая кровь эпопея о радостном событии
24. Чудовищные россказни о высоком и низком
25. Пугающее происшествие в цирке

Общее
Уникальный идентификатор : 254172383010245732305094269128593255557 (0xBF37D2024C5DD440A1A586F2C7BA2C85)
Полное имя : D:\КАДИРОВКА\mashkin_horror_01_[tfile.ru].mkv
Формат : Matroska
Версия формата : Version 2
Размер файла : 204 Мбайт
Продолжительность : 5 м. 45 с.
Общий поток : 4957 Кбит/сек
Дата кодирования : UTC 2017-01-15 08:22:07
Программа кодирования : mkvmerge v4.0.0 ('The Stars were mine') сборка от Jun 6 2010 16:18:42
Библиотека кодирования : libebml v1.0.0 + libmatroska v1.0.0
Обложка : Yes
Attachments : cover.jpg

Видео
Идентификатор : 1
Формат : AVC
Формат/Информация : Advanced Video Codec
Профиль формата :
Параметр CABAC формата : Да
Параметр ReFrames формата : 6 кадров
Идентификатор кодека : V_MPEG4/ISO/AVC
Продолжительность : 5 м. 45 с.
Битрейт : 4410 Кбит/сек
Номинальный битрейт : 4700 Кбит/сек
Ширина : 1280 пикселей
Высота : 720 пикселей
Соотношение сторон : 16:9
Режим частоты кадров : Постоянный
Частота кадров : 25,000 кадров/сек
Цветовое пространство : YUV
Субдискретизация насыщенности : 4:2:0
Битовая глубина : 8 бит
Тип развёртки : Прогрессивная
Бит/(Пиксели*Кадры) : 0.191
Размер потока : 181 Мбайт (89%)
Библиотека кодирования : x264 core 146 r2538 121396c
Настройки программы : cabac=1 / ref=6 / deblock=1:-1:-1 / analyse=0x3:0x133 / me=umh / subme=11 / psy=1 / psy_rd=1.00:0.15 / mixed_ref=1 / me_range=24 / chroma_me=1 / trellis=2 / 8x8dct=1 / cqm=0 / deadzone=21,11 / fast_pskip=0 / chroma_qp_offset=-3 / threads=12 / lookahead_threads=1 / sliced_threads=0 / nr=0 / decimate=1 / interlaced=0 / bluray_compat=0 / constrained_intra=0 / bframes=3 / b_pyramid=2 / b_adapt=2 / b_bias=0 / direct=1 / weightb=1 / open_gop=0 / weightp=2 / keyint=250 / keyint_min=25 / scenecut=40 / intra_refresh=0 / rc_lookahead=50 / rc=abr / mbtree=1 / bitrate=4700 / ratetol=1.0 / qcomp=0.69 / qpmin=0 / qpmax=69 / qpstep=4 / ip_ratio=1.40 / aq=1:1.00
Default : Нет
Forced : Нет

Аудио
Идентификатор : 2
Формат : AC-3
Формат/Информация : Audio Coding 3
Расширение режима : CM (complete main)
Параметр Endianness формата : Big
Идентификатор кодека : A_AC3
Продолжительность : 5 м. 45 с.
Вид битрейта : Постоянный
Битрейт : 448 Кбит/сек
Каналы : 6 каналов
Расположение каналов : Front: L C R, Side: L R, LFE
Частота : 48,0 КГц
Частота кадров : 31,250 кадров/сек (1536 spf)
Битовая глубина : 16 бит
Метод сжатия : С потерями
Размер потока : 18,4 Мбайт (9%)
Default : Нет
Forced : Нет









21.02.2018. Добавлены серии Машкины страшилки



   Похожие торренты   Торрент   Размер 
В этой теме нет новых непрочитанных сообщений. Маша и Медведь (1 - 69 серия из 69 ) + Машины сказки (1-26 из 26)+ Машкины страшилки (1 - 25 серия из 25 ) (Андрей Добрунов, Дмитрий Ловейко, Олег Кузовков) [2009-2018, мультфильм, комедия, семейный, HDRip-AVC]

30 | 82

27.16 ГБ

В этой теме нет новых непрочитанных сообщений. Маша и Медведь (1 - 66 серия из 66 ) + Машины сказки (1-26 из 26)+ Машкины страшилки (1 - 21 серия из 21 ) (Андрей Добрунов, Дмитрий Ловейко, Олег Кузовков) [2009-2017, мультфильм, комедия, семейный, HDRip-AVC]

26 | 97

25.67 ГБ

В этой теме нет новых непрочитанных сообщений. Маша и Медведь (1 - 64 серия из 64 ) + Машины сказки (1-26 из 26)+ Машкины страшилки (1 - 20 серия из 20 ) (Андрей Добрунов, Дмитрий Ловейко, Олег Кузовков) [2009-2017, мультфильм, комедия, семейный, HDRip-AVC]

23 | 111

25.23 ГБ

В этой теме нет новых непрочитанных сообщений. Маша и Медведь (71 серия) Вот такой хоккей! (Андрей Добрунов, Дмитрий Ловейко, Олег Кузовков) [2018, мультфильм, комедия, семейный, WEB-DL 720р]

27 | 0

239.19 МБ

В этой теме нет новых непрочитанных сообщений. Маша и Медведь / 01- 64 из ? / Машкины страшилки / 01-19 из ? / Машины сказки / 01-26 из ? (Олег Кузовков, Олег Ужинов, Денис Червяцов) [2009-2017, Россия, мультфильм, комедия, семейный, BDRip, WEB-DLRip]

40 | 21

10.64 ГБ

В этой теме нет новых непрочитанных сообщений. Маша и Медведь / 01-65 / Машкины страшилки / 01-20 / Машины сказки / 01-26 / Клипы / 1-21 (Олег Кузовков, Олег Ужинов, Денис Червяцов) [2009-2017, Россия, мультфильм, комедия, семейный, BDRip, WEB-DLRip]

50 | 34

10.75 ГБ

В этой теме нет новых непрочитанных сообщений. Маша и Медведь [01-61] + Машины Сказки [01-26] + Машкины страшилки [01-16] + Клип (2009-2016) HDRip, WEB-DLRip от GeneralFilm

4 | 2

8.15 ГБ




Вы не можете начинать темы
Вы не можете отвечать на сообщения
Вы не можете редактировать свои сообщения
Вы не можете удалять свои сообщения
Вы не можете добавлять вложения

Перейти:  
 Вход
ppkBB3cker v.2 © 2008-2014 @ PPK
[ Time : 0.025s | 17 Queries | GZIP : Off ]

cron