img image001 image001 image001 image001 image001 image001 image001 image001 image001 image001 image001 image001 image001 image001 image001 image001

Planets Sun Sun Sun
Статистика раздачи
Автор: Снежана | Размер: 27.06 ГБ | Добавлен: 23 фев 2018
Раздают: 40    Качают: 5
Скачать торрент
Скачать торрент
Описание торрента

СообщениеДобавлено: 23 фев 2018 

Бригада (1-15 серии из 15)

Перевод: Не требуется, cубтитры: отсутствуют
Формат: WEBRip-AVC, MKV, H.264, AC3
Страна: Россия
Режиссер: Алексей Сидоров
Жанр: криминал, драма, триллер, боевик
Всего серий: 15
Продолжительность: 15 x ~ 00:51:00
Год выпуска: 2002
В ролях: Сергей Безруков, Дмитрий Дюжев, Павел Майков, Владимир Вдовиченков, Екатерина Гусева, Андрей Панин, Валентина Теличкина, Алексей Кравченко, Александр Высоковский, Александра Назарова, Николай Ерёменко мл., Александр Иншаков, Мария Аронова, Александр Белявский, Мария Порошина, Ян Цапник, Светлана Чуйкина, Сергей Гармаш, Фархад Махмудов, Валерий Трошин, Александра Флоринская, Анатолий Белый, Сергей Апрельский, Наталья Панова, Леонид Куравлёв, Дарья Повереннова, Виталий Безруков, Владимир Довжик, Александр Фастовский, Пётр Меркурьев, Даниил Страхов, Константин Спасский, Николай Лещуков, Сергей Рубеко, Михаил Жигалов, Филипп Феоктистов, Алла Мещерякова, Виктор Павлов, Дмитрий Гуменецкий
Описание:
Это история четырех друзей детства, обычных московских парней, Саши Белого, Космоса, Пчелы и Фила, выросших в одном дворе. Друзья решили немного подзаработать, но незапланированное убийство вмиг перемешало все задуманное, поставив на кон их жизни. Ставка слишком высока, но отступать некуда. Теперь парни прокладывают себе дорогу в криминальном мире и волею судеб превращаются в одну из самых сплоченных и влиятельных группировок…



Видео: 964х576 (5:3), 25 fps, AVC Н.264 ~4672 kbps avg, 0.337 bit/pixel
Аудио#1: 48 kHz, АС3, 6 ch, (Front: L C R, Side: L R, LFE) ~448.00 kbps avg
Аудио#2: 48 kHz, АС3, 2 ch, Front: L R ~224.00 kbps avg

Общее
Уникальный идентификатор : 220760636922030956150927616007772324194 (0xA614F3BE125A1AB5805B72A307544162)
Полное имя : D:\Бригада_2002-WEBRip-AVC_KORSAR\02-Бригада.mkv
Формат : Matroska
Версия формата : Version 2
Размер файла : 1,97 Гбайт
Продолжительность : 51 м. 46 с.
Общий поток : 5453 Кбит/сек
Название фильма : Бригада_2002-WEBRip-AVC_KORSAR
Дата кодирования : UTC 2018-02-15 17:21:42
Программа кодирования : mkvmerge v5.8.0 ('No Sleep / Pillow') built on Sep 2 2012 15:37:04
Библиотека кодирования : libebml v1.2.3 + libmatroska v1.3.0

Видео
Идентификатор : 1
Формат : AVC
Формат/Информация : Advanced Video Codec
Профиль формата :
Параметр CABAC формата : Да
Параметр RefFrames формата : 14 кадров
Идентификатор кодека : V_MPEG4/ISO/AVC
Продолжительность : 51 м. 46 с.
Битрейт : 4672 Кбит/сек
Ширина : 964 пикселя
Высота : 576 пикселей
Соотношение сторон : 5:3
Режим частоты кадров : Постоянный
Частота кадров : 25,000 кадров/сек
Цветовое пространство : YUV
Субдискретизация насыщенности : 4:2:0
Битовая глубина : 8 бит
Тип развёртки : Прогрессивная
Бит/(Пиксели*Кадры) : 0.337
Размер потока : 1,69 Гбайт (86%)
Библиотека кодирования : x264 core 148 r2744kMod b97ae06
Настройки программы : cabac=1 / ref=14 / deblock=1:-1:1 / analyse=0x3:0x113 / me=umh / subme=10 / psy=1 / fade_compensate=0.00 / psy_rd=1.05:0.10 / mixed_ref=1 / me_range=32 / chroma_me=1 / trellis=2 / 8x8dct=1 / cqm=0 / deadzone=21,11 / fast_pskip=1 / chroma_qp_offset=-3 / threads=12 / lookahead_threads=2 / sliced_threads=0 / nr=0 / decimate=1 / interlaced=0 / bluray_compat=0 / constrained_intra=0 / bframes=8 / b_pyramid=2 / b_adapt=2 / b_bias=0 / direct=1 / weightb=1 / open_gop=0 / weightp=2 / keyint=250 / keyint_min=25 / scenecut=40 / intra_refresh=0 / rc=crf / mbtree=0 / crf=17.9000 / qcomp=0.63 / qpmin=0 / qpmax=39 / qpstep=4 / ip_ratio=1.40 / pb_ratio=1.30 / aq=1:1.00
Язык : English
Default : Да
Forced : Нет
Цветовой диапазон : Limited
Основные цвета : BT.709
Характеристики трансфера : BT.709
Коэффициенты матрицы : BT.709

Аудио #1
Идентификатор : 2
Формат : AC-3
Формат/Информация : Audio Coding 3
Параметр Endianness формата : Big
Идентификатор кодека : A_AC3
Продолжительность : 51 м. 46 с.
Вид битрейта : Постоянный
Битрейт : 448 Кбит/сек
Каналы : 6 каналов
Расположение каналов : Front: L C R, Side: L R, LFE
Частота : 48,0 КГц
Частота кадров : 31,250 кадров/сек (1536 SPF)
Битовая глубина : 16 бит
Метод сжатия : С потерями
Размер потока : 166 Мбайт (8%)
Язык : Russian
ServiceKind/String : Complete Main
Default : Да
Forced : Нет

Аудио #2
Идентификатор : 3
Формат : AC-3
Формат/Информация : Audio Coding 3
Параметр Endianness формата : Big
Идентификатор кодека : A_AC3
Продолжительность : 51 м. 46 с.
Вид битрейта : Постоянный
Битрейт : 224 Кбит/сек
Каналы : 2 канала
Расположение каналов : Front: L R
Частота : 48,0 КГц
Частота кадров : 31,250 кадров/сек (1536 SPF)
Битовая глубина : 16 бит
Метод сжатия : С потерями
Размер потока : 82,9 Мбайт (4%)
Язык : Russian
ServiceKind/String : Complete Main
Default : Нет
Forced : Нет








   Похожие торренты   Торрент   Размер 
В этой теме нет новых непрочитанных сообщений. Защита Красина (1-3 сезон 1-40 серии из 40) (Алексей Шикин, Алексей Богданов) [2006-2011, боевик, криминал, детектив, WEBRip-AVC]

1 | 0

22.49 ГБ

В этой теме нет новых непрочитанных сообщений. Полиция Чикаго, 5 сезон 1-16 серии из 23 / Chicago PD [IdeaFilm] (Марк Тинкер, Ник Гомез, Фред Бернер) [2017, боевик, триллер, драма, криминал, WEBRip, P]

9 | 6

9.14 ГБ

В этой теме нет новых непрочитанных сообщений. Полиция Чикаго, 5 сезон 1-16 серии из 23 / Chicago PD [IdeaFilm] (Марк Тинкер, Ник Гомез, Фред Бернер) [2017, боевик, триллер, драма, криминал, WEBRip 1080p, P]

6 | 0

36.65 ГБ

В этой теме нет новых непрочитанных сообщений. Полиция Чикаго, 5 сезон 1-16 серии из 23 / Chicago PD [IdeaFilm] (Марк Тинкер, Ник Гомез, Фред Бернер) [2017, боевик, триллер, драма, криминал, WEBRip 720p, P]

0 | 0

25.1 ГБ

В этой теме нет новых непрочитанных сообщений. Менталист (1-16 серии из 16) (Алексей Мурадов ) [2018, драма, детектив, триллер, WEBRip]

49 | 12

9.47 ГБ

В этой теме нет новых непрочитанных сообщений. Менталист (1-11 серии из 16) (Алексей Мурадов ) [2018, драма, детектив, триллер, WEBRip]

54 | 35

6.54 ГБ

В этой теме нет новых непрочитанных сообщений. Менталист (1-12,14-16 серии из 16) (Алексей Мурадов ) [2018, драма, детектив, триллер, WEBRip-AVC]

24 | 9

9.22 ГБ




Вы не можете начинать темы
Вы не можете отвечать на сообщения
Вы не можете редактировать свои сообщения
Вы не можете удалять свои сообщения
Вы не можете добавлять вложения

Перейти:  
 Вход
ppkBB3cker v.2 © 2008-2014 @ PPK
[ Time : 0.033s | 17 Queries | GZIP : Off ]

cron