img image001 image001 image001 image001 image001 image001 image001 image001 image001 image001 image001 image001 image001 image001 image001 image001

Planets Sun Sun Sun
Статистика раздачи
Автор: Снежана | Размер: 3.56 ГБ | Добавлен: 23 фев 2018
Раздают: 13    Качают: 0
Скачать торрент
Скачать торрент
Описание торрента

СообщениеДобавлено: 23 фев 2018 

Обитель теней / Marrowbone

Перевод: Профессиональный (полное дублирование) iTunes
Субтитры: Отсутствуют
Формат: WEB-DLRip-AVC, MKV, H.264, AC3
Страна: Испания
Режиссер: Серхио Х. Санчес
Жанр: ужасы, триллер, драма
Продолжительность: 01:46:00
Год выпуска: 2017

В ролях: Джордж МакКэй, Аня Тейлор-Джой, Чарли Хитон, Миа Гот, Мэттью Стэгг, Николя Харрисон, Кайл Соллер, Том Фишер, Пол Джессон

Описание: Мрачная тайна окутывает старинный особняк, в котором Джек уединенно живет с братьями и сестрой. Однако обитель теней открыла свои двери для прекрасной незнакомки, живущей по соседству. Она пока не знает, что здесь в любой момент зловещие силы готовы нанести удар из темноты…



Видео: 960x532@1280x532 (2.40:1), 25 fps, AVC MPEG-4 (H.264), ~4036 kbps, 0.316 bit/pixel
Аудио #1: Русский: 48 kHz, AC3 Dolby Digital, 6 ch, ~384 kbps [Профессиональный (полное дублирование)]
Аудио #2: Украинский: 48 kHz, AC3 Dolby Digital, 6 ch, ~384 kbps [Профессиональный (полное дублирование)]

Формат : Matroska
Версия формата : Version 4 / Version 2
Размер файла : 3,56 Гбайт
Продолжительность : 1 ч. 46 м.
Общий поток : 4806 Кбит/сек
Дата кодирования : UTC 2018-02-21 10:16:29
Программа кодирования : mkvmerge v9.5.0 ('Quiet Fire') 64bit
Библиотека кодирования : libebml v1.3.4 + libmatroska v1.4.5

Видео
Идентификатор : 1
Формат : AVC
Формат/Информация : Advanced Video Codec
Профиль формата :
Настройки формата : 2 Ref Frames
Параметр CABAC формата : Нет
Параметр RefFrames формата : 2 кадра
Идентификатор кодека : V_MPEG4/ISO/AVC
Продолжительность : 1 ч. 45 м.
Битрейт : 4036 Кбит/сек
Ширина : 960 пикселей
Высота : 532 пикселя
Соотношение сторон : 2,40:1
Режим частоты кадров : Постоянный
Частота кадров : 25,000 кадров/сек
Цветовое пространство : YUV
Субдискретизация насыщенности : 4:2:0
Битовая глубина : 8 бит
Тип развёртки : Прогрессивная
Бит/(Пиксели*Кадры) : 0.316
Размер потока : 2,99 Гбайт (84%)
Язык : English
Default : Да
Forced : Нет
Цветовой диапазон : Limited
Основные цвета : BT.709
Характеристики трансфера : BT.709
Коэффициенты матрицы : BT.709

Аудио #1
Идентификатор : 2
Формат : AC-3
Формат/Информация : Audio Coding 3
Идентификатор кодека : A_AC3
Продолжительность : 1 ч. 46 м.
Вид битрейта : Постоянный
Битрейт : 384 Кбит/сек
Каналы : 6 каналов
Расположение каналов : Front: L C R, Side: L R, LFE
Частота : 48,0 КГц
Частота кадров : 31,250 кадров/сек (1536 SPF)
Битовая глубина : 16 бит
Метод сжатия : С потерями
Размер потока : 291 Мбайт (8%)
Язык : Russian
Default : Да
Forced : Нет

Аудио #2
Идентификатор : 3
Формат : AC-3
Формат/Информация : Audio Coding 3
Идентификатор кодека : A_AC3
Продолжительность : 1 ч. 46 м.
Вид битрейта : Постоянный
Битрейт : 384 Кбит/сек
Каналы : 6 каналов
Расположение каналов : Front: L C R, Side: L R, LFE
Частота : 48,0 КГц
Частота кадров : 31,250 кадров/сек (1536 SPF)
Битовая глубина : 16 бит
Метод сжатия : С потерями
Размер потока : 291 Мбайт (8%)
Язык : Ukrainian
Default : Нет
Forced : Нет

Меню
00:00:00.000 : en:Глава 1
00:07:13.360 : en:Глава 2
00:14:15.000 : en:Глава 3
00:21:56.400 : en:Глава 4
00:30:31.760 : en:Глава 5
00:38:09.680 : en:Глава 6
00:45:12.320 : en:Глава 7
00:52:13.800 : en:Глава 8
00:59:37.440 : en:Глава 9
01:08:16.440 : en:Глава 10
01:15:55.520 : en:Глава 11
01:23:31.680 : en:Глава 12
01:31:03.400 : en:Глава 13












   Похожие торренты   Торрент   Размер 
В этой теме нет новых непрочитанных сообщений. Обитель теней / Marrowbone (Серхио Х. Санчес) [2017, ужасы, триллер, драма, HDRip] DUB / Мистика

44 | 0

1.46 ГБ

В этой теме нет новых непрочитанных сообщений. Обитель теней / Marrowbone (Серхио Х. Санчес) [2017, ужасы, триллер, драма, WEBDLRip] DUB

89 | 1

1.45 ГБ

В этой теме нет новых непрочитанных сообщений. Обитель теней / Marrowbone (Серхио Х. Санчес) [2017, ужасы, триллер, драма, BDRip] DUB / Мистика

61 | 0

1.41 ГБ

В этой теме нет новых непрочитанных сообщений. Обитель теней / Marrowbone (Серхио Х. Санчес) [2017, ужасы, триллер, драма, BDRip] DUB / Мистика

28 | 0

2.18 ГБ

В этой теме нет новых непрочитанных сообщений. Обитель теней / Marrowbone (Серхио Х. Санчес) [2017, ужасы, триллер, драма, BDRip] DUB / Мистика

16 | 0

745.4 МБ

В этой теме нет новых непрочитанных сообщений. Обитель теней / Marrowbone (2017) CAMRip | D

214 | 6

1.37 ГБ

В этой теме нет новых непрочитанных сообщений. Палачи / The Executioners (Джорджо Серафини) [2017, ужасы, триллер, WEBDLRip-AVC] DVO / Фильмы HDRip

0 | 0

2.15 ГБ




Вы не можете начинать темы
Вы не можете отвечать на сообщения
Вы не можете редактировать свои сообщения
Вы не можете удалять свои сообщения
Вы не можете добавлять вложения

Перейти:  
 Вход
ppkBB3cker v.2 © 2008-2014 @ PPK
[ Time : 0.033s | 17 Queries | GZIP : Off ]

cron