img image001 image001 image001 image001 image001 image001 image001 image001 image001 image001 image001 image001 image001 image001 image001 image001

Planets Sun Sun Sun
Статистика раздачи
Автор: Снежана | Размер: 1.46 ГБ | Добавлен: 23 фев 2018
Раздают: 40    Качают: 0
Скачать торрент
Скачать торрент
Описание торрента

СообщениеДобавлено: 23 фев 2018 

Здравствуй, папа, Новый год! 2 / Daddy's Home 2


Перевод: Профессиональный (полное дублирование) [лицензия Blu-ray CEE]
Субтитры: русские (полные + форс.)
Формат: BDRip-AVC, MKV, H.264, AC3
Страна: США
Режиссер: Шон Андерс
Жанр: комедия
Продолжительность: 01:39:42
Год выпуска: 2017

В ролях: Уилл Феррелл, Марк Уолберг, Линда Карделлини, Мэл Гибсон, Джон Литгоу, Джон Сина, Алессандра Амбросио, Скарлетт Эстевез, Оуэн Ваккаро

Описание: Отец и отчим, Дасти и Брэд, объединяются, чтобы организовать для своих детей идеальный рождественский праздник. Но их с горем пополам достигнутый нейтралитет оказывается под угрозой, когда к внукам приезжают олдскульный мачо-папаша Дасти и чувствительный и эмоциональный папочка Брэда. Они как нельзя кстати, чтобы превратить Рождество в кошмарный хаос.
«Чем больше папаш, тем больше проблем»



Видео: 960x540 (16:9), 23,976 fps, AVC MPEG-4 (x264), ~ 1650 kbps , 0.133 bit/pixel
Аудио: 48 kHz, AC3 Dolby Digital, 3/2 (L,C,R,l,r) + LFE ch, ~448.00 kbps avg
Общее
Уникальный идентификатор : 222140565984147945345847867024811534195 (0xA71EB77F7F3BC2AB93A44FFEF40CA773)
Полное имя : C:\Zdravstvuy.Papa.Novyi.God.2.2017.RUS.BDRip.x264.-HELLYWOOD.mkv
Формат : Matroska
Версия формата : Version 4 / Version 2
Размер файла : 1,46 Гбайт
Продолжительность : 1 ч. 39 м.
Общий поток : 2100 Кбит/сек
Название фильма : Daddy's Home 2 (2017)
Дата кодирования : UTC 2018-02-21 03:34:42
Программа кодирования : mkvmerge v5.9.0 ('On The Loose') built on Dec 15 2012 16:39:58
Библиотека кодирования : libebml v1.3.0 + libmatroska v1.4.0

Видео
Идентификатор : 1
Формат : AVC
Формат/Информация : Advanced Video Codec
Профиль формата :
Настройки формата : CABAC / 12 Ref Frames
Параметр CABAC формата : Да
Параметр RefFrames формата : 12 кадров
Идентификатор кодека : V_MPEG4/ISO/AVC
Продолжительность : 1 ч. 39 м.
Битрейт : 1650 Кбит/сек
Ширина : 960 пикселей
Высота : 540 пикселей
Соотношение сторон : 16:9
Режим частоты кадров : Постоянный
Частота кадров : 23,976 (24000/1001) кадра/сек
Цветовое пространство : YUV
Субдискретизация насыщенности : 4:2:0
Битовая глубина : 8 бит
Тип развёртки : Прогрессивная
Бит/(Пиксели*Кадры) : 0.133
Размер потока : 1,12 Гбайт (77%)
Библиотека кодирования : x264 core 155 r2901M 7d0ff22
Настройки программы : cabac=1 / ref=12 / deblock=1:-2:-2 / analyse=0x3:0x131 / me=umh / subme=11 / psy=1 / psy_rd=1.00:0.05 / mixed_ref=1 / me_range=48 / chroma_me=1 / trellis=2 / 8x8dct=1 / cqm=0 / deadzone=21,11 / fast_pskip=0 / chroma_qp_offset=-3 / threads=9 / lookahead_threads=2 / sliced_threads=0 / nr=0 / decimate=0 / interlaced=0 / bluray_compat=0 / constrained_intra=0 / bframes=13 / b_pyramid=2 / b_adapt=2 / b_bias=0 / direct=3 / weightb=1 / open_gop=0 / weightp=2 / keyint=240 / keyint_min=23 / scenecut=40 / intra_refresh=0 / rc_lookahead=100 / rc=2pass / mbtree=0 / bitrate=1650 / ratetol=1.0 / qcomp=0.70 / qpmin=0 / qpmax=69 / qpstep=4 / cplxblur=20.0 / qblur=0.5 / vbv_maxrate=50000 / vbv_bufsize=50000 / nal_hrd=none / filler=0 / ip_ratio=1.40 / pb_ratio=1.30 / aq=1:0.80
Язык : English
Default : Да
Forced : Нет

Аудио
Идентификатор : 2
Формат : AC-3
Формат/Информация : Audio Coding 3
Идентификатор кодека : A_AC3
Продолжительность : 1 ч. 39 м.
Вид битрейта : Постоянный
Битрейт : 448 Кбит/сек
Каналы : 6 каналов
Расположение каналов : Front: L C R, Side: L R, LFE
Частота : 48,0 КГц
Частота кадров : 31,250 кадров/сек (1536 SPF)
Битовая глубина : 16 бит
Метод сжатия : С потерями
Размер потока : 319 Мбайт (21%)
Заголовок : Dub | DD 5.1 @ 448 kbps - Blu-ray CEE
Язык : Russian
ServiceKind/String : Complete Main
Default : Да
Forced : Нет

Текст #1
Идентификатор : 3
Формат : UTF-8
Идентификатор кодека : S_TEXT/UTF8
Идентификатор кодека/Информация : UTF-8 Plain Text
Заголовок : Forced
Язык : Russian
Default : Да
Forced : Нет

Текст #2
Идентификатор : 4
Формат : UTF-8
Идентификатор кодека : S_TEXT/UTF8
Идентификатор кодека/Информация : UTF-8 Plain Text
Заголовок : iTunes
Язык : Russian
Default : Нет
Forced : Нет

Меню
00:00:00.000 : :Chapter 1
00:08:08.529 : :Chapter 2
00:16:08.092 : :Chapter 3
00:21:44.052 : :Chapter 4
00:27:40.158 : :Chapter 5
00:32:47.423 : :Chapter 6
00:40:49.029 : :Chapter 7
00:47:57.165 : :Chapter 8
00:52:27.894 : :Chapter 9
01:00:08.730 : :Chapter 10
01:08:37.363 : :Chapter 11
01:15:23.101 : :Chapter 12
01:26:24.846 : :Chapter 13
01:33:34.942 : :Chapter 14










   Похожие торренты   Торрент   Размер 
В этой теме нет новых непрочитанных сообщений. Здравствуй, папа, Новый год! 2 / Daddy's Home 2 (Шон Андерс) [2017, комедия, BDRip-AVC] DUB

86 | 0

2.18 ГБ

В этой теме нет новых непрочитанных сообщений. Здравствуй, папа, Новый год! 2 / Daddy's Home 2 (Шон Андерс) [2017, комедия, BDRip] DUB

313 | 9

1.46 ГБ

В этой теме нет новых непрочитанных сообщений. Здравствуй, папа, Новый год! 2 / Daddy's Home 2 (Шон Андерс) [2017, комедия, BDRip] DUB

24 | 2

746.86 МБ

В этой теме нет новых непрочитанных сообщений. Здравствуй, папа, Новый год! 2 / Daddy's Home 2 (2017) BDRip от MegaPeer | iTunes

364 | 115

1.42 ГБ

В этой теме нет новых непрочитанных сообщений. Здравствуй, папа, Новый год! 2 / Daddy's Home 2 (2017) BDRip от MegaPeer | iTunes

4 | 0

746.86 МБ

В этой теме нет новых непрочитанных сообщений. Здравствуй, папа, Новый год! 2 / Daddy's Home 2 (2017) BDRip-AVC от HELLYWOOD | iTunes

0 | 0

1.42 ГБ

В этой теме нет новых непрочитанных сообщений. Здравствуй, папа, Новый год! 2 / Daddy's Home 2 (2017) BDRip-AVC от OlLanDGroup | iTunes

164 | 51

2.4 ГБ




Вы не можете начинать темы
Вы не можете отвечать на сообщения
Вы не можете редактировать свои сообщения
Вы не можете удалять свои сообщения
Вы не можете добавлять вложения

Перейти:  
 Вход
ppkBB3cker v.2 © 2008-2014 @ PPK
[ Time : 0.043s | 16 Queries | GZIP : Off ]

cron