img image001 image001 image001 image001 image001 image001 image001 image001 image001 image001 image001 image001 image001 image001 image001 image001

Planets Sun Sun Sun
Статистика раздачи
Автор: Снежана | Размер: 2.02 ГБ | Добавлен: 23 фев 2018
Раздают: 6    Качают: 2
Скачать торрент
Скачать торрент
Описание торрента

СообщениеДобавлено: 23 фев 2018 

Реконструкция / Reconstruction


Перевод: Профессиональный (двухголосый), субтитры: отсутствуют
Формат: DVDRip-AVC, MKV, H.263, AC3
Страна: Дания
Режиссер: Кристоффер Боэ
Жанр: драма, мелодрама
Продолжительность: 01:27:26
Год выпуска: 2003
В ролях: Клаус Мулбьерг, Николай Ли Каас, Мария Бонневи, Кристер Хенрикссон, Николас Бро, Питер Стин, Хелли Факрайд, Малене Шварц, Ида Двингер, Мерседес Кларо Шелин
Описание:
Молодой фотограф Алекса встречает Айме. Он устремляется навстречу чувствам и... на следующий день начинают происходить странные вещи. Рушится все, что было в прошлом: Алекса по необъяснимым причинам перестают узнавать не только родные, друзья и бывшая девушка, но и сама Айме. Юноше начинает казаться, что он сам стал действующим персонажем какой-то драматической повести, которая разворачивается перед его глазами...



Видео: 1020x436@716x436 (2.35:1) 25.00 fps, MPEG4 AVC (x264) , 2400 kbps avg, 0.308 bit/pixel
Аудио #1: Русский: 48 kHz, AC3 Dolby Digital, 3/2 (L,C,R,l,r) + LFE ch, ~448.00 kbps avg [профессиональный (двухголосый)]
Аудио #2: Датский: 48 kHz, AC3 Dolby Digital, 3/2 (L,C,R,l,r) + LFE ch, ~448.00 kbps avg [Оригинал]

Complete name : D:\Rekonstrukciya.2003.DVDRip-AVC.2gb.mkv
Format : Matroska
File size : 2.02 GiB
Duration : 1h 27mn
Overall bit rate : 3 300 Kbps
Encoded date : UTC 2017-12-13
Writing application : Lavf55.11.101
Writing library : Lavf55.11.101

Video
ID : 1
Format : AVC
Format/Info : Advanced Video Codec
Format profile :
Format settings, CABAC : Yes
Format settings, ReFrames : 13 frames
Codec ID : V_MPEG4/ISO/AVC
Duration : 1h 27mn
Bit rate : 2 400 Kbps
Width : 716 pixels
Height : 436 pixels
Display aspect ratio : 2.35:1
Frame rate mode : Variable
Frame rate : 25.000 fps
Color space : YUV
Chroma subsampling : 4:2:0
Bit depth : 8 bits
Scan type : Progressive
Bits/(Pixel*Frame) : 0.308
Stream size : 1.43 GiB (71%)
Writing library : x264 core 120
Encoding settings : cabac=1 / ref=13 / deblock=1:0:0 / analyse=0x3:0x133 / me=umh / subme=9 / psy=1 / psy_rd=1,00:0,20 / mixed_ref=1 / me_range=32 / chroma_me=1 / trellis=2 / 8x8dct=1 / cqm=0 / deadzone=21,11 / fast_pskip=1 / chroma_qp_offset=-3 / threads=6 / sliced_threads=0 / nr=0 / decimate=1 / interlaced=0 / bluray_compat=0 / constrained_intra=0 / bframes=11 / b_pyramid=2 / b_adapt=2 / b_bias=0 / direct=3 / weightb=1 / open_gop=0 / weightp=2 / keyint=250 / keyint_min=25 / scenecut=40 / intra_refresh=0 / rc_lookahead=40 / rc=2pass / mbtree=1 / bitrate=2400 / ratetol=1,0 / qcomp=0,60 / qpmin=3 / qpmax=69 / qpstep=4 / cplxblur=20,0 / qblur=0,5 / ip_ratio=1,40 / aq=1:1,00
Language : Danish
Color primaries : BT.601-6 525, BT.1358 525, BT.1700 NTSC, SMPTE 170M
Transfer characteristics : BT.709-5, BT.1361
Matrix coefficients : BT.601-6 525, BT.1358 525, BT.1700 NTSC, SMPTE 170M

Audio #1
ID : 2
Format : AC-3
Format/Info : Audio Coding 3
Mode extension : CM (complete main)
Codec ID : A_AC3
Duration : 1h 27mn
Bit rate mode : Constant
Bit rate : 448 Kbps
Channel(s) : 6 channels
Channel positions : Front: L C R, Side: L R, LFE
Sampling rate : 48.0 KHz
Bit depth : 16 bits
Stream size : 280 MiB (14%)
Title : AC-3 448 Kbps 6 ch 48.0 KHz 16 bits
Language : Russian

Audio #2
ID : 3
Format : AC-3
Format/Info : Audio Coding 3
Mode extension : CM (complete main)
Codec ID : A_AC3
Duration : 1h 27mn
Bit rate mode : Constant
Bit rate : 448 Kbps
Channel(s) : 6 channels
Channel positions : Front: L C R, Side: L R, LFE
Sampling rate : 48.0 KHz
Bit depth : 16 bits
Stream size : 280 MiB (14%)
Title : AC-3 448 Kbps 6 ch 48.0 KHz 16 bits
Language : Danish

Menu
00:00:00.000 : :Chapter 1
00:01:21.480 : :Chapter 2
00:07:14.880 : :Chapter 3
00:10:31.680 : :Chapter 4
00:15:08.640 : :Chapter 5
00:17:05.520 : :Chapter 6
00:21:18.000 : :Chapter 7
00:26:09.000 : :Chapter 8
00:29:01.680 : :Chapter 9
00:31:54.120 : :Chapter 10
00:35:08.160 : :Chapter 11
00:38:32.280 : :Chapter 12
00:40:48.600 : :Chapter 13
00:42:38.640 : :Chapter 14
00:45:12.960 : :Chapter 15
00:48:50.640 : :Chapter 16
00:52:12.600 : :Chapter 17
00:56:22.160 : :Chapter 18
00:59:10.520 : :Chapter 19
01:02:30.320 : :Chapter 20
01:07:04.760 : :Chapter 21
01:14:45.560 : :Chapter 22
01:20:50.720 : :Chapter 23
01:24:29.720 : :Chapter 24
01:27:26.240 : :Chapter 25





















   Похожие торренты   Торрент   Размер 
В этой теме нет новых непрочитанных сообщений. Реконструкция / Reconstruction (2003) DVDRip

0 | 3

1.36 ГБ

В этой теме нет новых непрочитанных сообщений. Реконструкция / Reconstruction (2003) DVDRip

31 | 4

700.03 МБ

В этой теме нет новых непрочитанных сообщений. Реконструкция / Reconstruction (2003) DVDRip-AVC

34 | 4

2.5 ГБ

В этой теме нет новых непрочитанных сообщений. Окно напротив / La Finestra di fronte (Ферзан Озпетек) [2003, драма, мелодрама, BDRip] MVO / Драмы

3 | 0

1.46 ГБ

В этой теме нет новых непрочитанных сообщений. Реконструкция Уильяма Зеро / The Reconstruction of William Zero (2014) WEB-DLRip | L1

229 | 48

1.22 ГБ

В этой теме нет новых непрочитанных сообщений. Реконструкция Уильяма Зеро / The Reconstruction of William Zero (2014) WEB-DL 720p | L1

101 | 18

3.1 ГБ

В этой теме нет новых непрочитанных сообщений. Караси (Сергей Крутин) [2008, драма, мелодрама, DVDRip] / Драмы

6 | 0

2.03 ГБ




Вы не можете начинать темы
Вы не можете отвечать на сообщения
Вы не можете редактировать свои сообщения
Вы не можете удалять свои сообщения
Вы не можете добавлять вложения

Перейти:  
 Вход
ppkBB3cker v.2 © 2008-2014 @ PPK
[ Time : 0.051s | 16 Queries | GZIP : Off ]

cron